Начать новую тему Ответить на тему
Статистика раздачи
Размер: 391.67 МБ | Добавлен: 21 июл 2020, 20:21 | Скачали: 0
Сидеров: 0  [0 байт/сек]    Личеров: 0  [0 байт/сек]
Пред. тема | След. тема 

Автор
Сообщение

СообщениеДобавлено: 21 июл 2020, 20:21 

Ответить с цитатой 

Люмены [Мск] / Немыслимо нестерпимо
Жанр: Indie Rock
Носитель: CD
Страна-производитель диска (релиза): Россия
Год издания: 2012
Издатель (лейбл): Союз мьюзик
Номер по каталогу: SZCD 6186-12
Страна исполнителя (группы): Россия
Аудиокодек: FLAC (*.flac)
Тип рипа: image+.cue
Продолжительность: 01:01:03
Источник: собственный рип
Наличие сканов в содержимом раздачи: да
Треклист:
1. Пробуждение
2. Девушка зиг-заг
3. Время, лети
4. Как перестать беспокоиться
5. Воровство
6. Один прекрасный день
7. МГО
8. Потеряла - не найдешь
9. Система 85
10. В твоих глазах
11. Радость, прощай
12. Живые ждут
Код:
Exact Audio Copy V1.3 from 2. September 2016
Отчёт EAC об извлечении, выполненном 26. мая 2020, 11:34
Люмены (мск) / Немыслимо нестерпимо
Дисковод: ATAPI   iHAS122   C   Adapter: 1  ID: 0
Режим чтения                 : Достоверность
Использование точного потока : Да
Отключение кэша аудио        : Да
Использование указателей C2  : Нет
Коррекция смещения при чтении                     : 6
Способность читать области Lead-in и Lead-out     : Нет
Заполнение пропущенных сэмплов тишиной            : Да
Удаление блоков с тишиной в начале и конце        : Нет
При вычислениях CRC использовались нулевые сэмплы : Да
Интерфейс                                         : Встроенный Win32-интерфейс для Win NT/2000
Выходной формат          : Пользовательский кодировщик
Выбранный битрейт        : 768 kBit/s
Качество                 : Высокий
Добавление ID3-тега      : Нет
Утилита сжатия           : C:\Program Files\Exact Audio Copy\FLAC\FLAC.EXE
Дополнительные параметры : -V -8 -T "Date=%year%" -T "Genre=%genre%" %source%
TOC извлечённого CD
     Трек |   Старт  | Длительность | Начальный сектор | Конечный сектор
    ---------------------------------------------------------------------
       1  |  0:00.00 |    5:02.19   |           0      |      22668
       2  |  5:02.19 |    4:57.64   |       22669      |      45007
       3  | 10:00.08 |    4:08.24   |       45008      |      63631
       4  | 14:08.32 |    7:50.14   |       63632      |      98895
       5  | 21:58.46 |    5:50.29   |       98896      |     125174
       6  | 27:49.00 |    6:06.18   |      125175      |     152642
       7  | 33:55.18 |    5:29.41   |      152643      |     177358
       8  | 39:24.59 |    3:05.62   |      177359      |     191295
       9  | 42:30.46 |    4:39.44   |      191296      |     212264
      10  | 47:10.15 |    4:36.61   |      212265      |     233025
      11  | 51:47.01 |    5:16.73   |      233026      |     256798
      12  | 57:03.74 |    3:59.19   |      256799      |     274742
Характеристики диапазона извлечения и сообщения об ошибках
Выбранный диапазон
     Имя файла D:\Музыка\Люмены (мск) - Немыслимо нестерпимо (2012, Союз Мьюзик)\Люмены (мск) - Немыслимо нестерпимо.wav
     Пиковый уровень 96.6 %
     Скорость извлечения 6.4 X
     Качество диапазона 100.0 %
     CRC теста 08DFA32C
     CRC копии 08DFA32C
     Копирование... OK
Ошибок не произошло
AccurateRip: сводка
Трек  1  отсутствует в базе данных
Трек  2  отсутствует в базе данных
Трек  3  отсутствует в базе данных
Трек  4  отсутствует в базе данных
Трек  5  отсутствует в базе данных
Трек  6  отсутствует в базе данных
Трек  7  отсутствует в базе данных
Трек  8  отсутствует в базе данных
Трек  9  отсутствует в базе данных
Трек 10  отсутствует в базе данных
Трек 11  отсутствует в базе данных
Трек 12  отсутствует в базе данных
Ни одного трека нет в базе AccurateRip
Конец отчёта
---- CUETools DB Plugin V2.1.6
[CTDB TOCID: l7BQekO1bHUppJjxiN2vCk9yPdQ-] disk not present in database
Submit result: l7BQekO1bHUppJjxiN2vCk9yPdQ- has been uploaded
==== Контрольная сумма отчёта FDA4486E9942573FE8FB3F3F70D028697BFB5778412EA5BCA4224CEB628BF514 ====
Код:
REM GENRE Rock
REM DATE 2012
REM DISCID 880E4F0C
REM COMMENT "ExactAudioCopy v1.3"
PERFORMER "Люмены (мск)"
TITLE "Немыслимо нестерпимо"
REM COMPOSER ""
FILE "Люмены (мск) - Немыслимо нестерпимо.flac" WAVE
  TRACK 01 AUDIO
    TITLE "Пробуждение"
    PERFORMER "Люмены (мск)"
    REM COMPOSER ""
    INDEX 01 00:00:00
  TRACK 02 AUDIO
    TITLE "Девушка зиг-заг"
    PERFORMER "Люмены (мск)"
    REM COMPOSER ""
    INDEX 01 05:02:19
  TRACK 03 AUDIO
    TITLE "Время, лети"
    PERFORMER "Люмены (мск)"
    REM COMPOSER ""
    INDEX 01 10:00:08
  TRACK 04 AUDIO
    TITLE "Как перестать беспокоиться"
    PERFORMER "Люмены (мск)"
    REM COMPOSER ""
    INDEX 01 14:08:32
  TRACK 05 AUDIO
    TITLE "Воровство"
    PERFORMER "Люмены (мск)"
    REM COMPOSER ""
    INDEX 01 21:58:46
  TRACK 06 AUDIO
    TITLE "Один прекрасный день"
    PERFORMER "Люмены (мск)"
    REM COMPOSER ""
    INDEX 01 27:49:00
  TRACK 07 AUDIO
    TITLE "МГО"
    PERFORMER "Люмены (мск)"
    REM COMPOSER ""
    INDEX 01 33:55:18
  TRACK 08 AUDIO
    TITLE "Потеряла - не найдешь"
    PERFORMER "Люмены (мск)"
    REM COMPOSER ""
    INDEX 01 39:24:59
  TRACK 09 AUDIO
    TITLE "Система 85"
    PERFORMER "Люмены (мск)"
    REM COMPOSER ""
    INDEX 01 42:30:46
  TRACK 10 AUDIO
    TITLE "В твоих глазах"
    PERFORMER "Люмены (мск)"
    REM COMPOSER ""
    INDEX 01 47:10:15
  TRACK 11 AUDIO
    TITLE "Радость, прощай"
    PERFORMER "Люмены (мск)"
    REM COMPOSER ""
    INDEX 01 51:47:01
  TRACK 12 AUDIO
    TITLE "Живые ждут"
    PERFORMER "Люмены (мск)"
    REM COMPOSER ""
    INDEX 01 57:03:74
Московская группа Люмены вот уже более десяти лет соединяет в своей музыке советский романтизм 60-ых с лучшими традициями западного краут- и инди- рока, не хуже чем это в свое время проделывали культовые Stereolab с ранней французской эстрадой. В 2003 году у группы вышел дебютный альбом в Японии, а также был переиздан на российском лейбле Soyuz Music. Второй и последний на данный момент альбом "Немыслимо нестерпимо" вышел в 2013 году на том же лейбле и является результатом деятельности группы за последние шесть лет.
Аля Сорокина - вокал
Пётр Попов - гитара
Кирилл Трепаков - гитара
Иван Кириченко - гитара
Ян Штраль - бас
Павел Щепетов - клавишные, электроника
Правила, инструкции, FAQ!!!
Торрент  Добавлен [21 июл 2020, 20:21] Скачать торрент Магнет ссылка
Скачать торрент
[ Размер 16.37 КБ / Просмотров 4 ]

Статус
Проверен 
 
Размер  391.67 МБ
Приватный: Нет (DHT включён)
.torrent скачан  0
 


     Отправить личное сообщение
   
Страница 1 из 1
Показать сообщения за:  Поле сортировки  
Начать новую тему Ответить на тему


Сейчас этот форум просматривают: нет зарегистрированных пользователей и гости: 0


Вы не можете начинать темы
Вы не можете отвечать на сообщения
Вы не можете редактировать свои сообщения
Вы не можете удалять свои сообщения
Вы не можете добавлять вложения

Перейти:  
cron