Начать новую тему Ответить на тему
Статистика раздачи
Размер: 293.69 МБ | Добавлен: 26 мар 2019, 20:10 | Скачали: 0
Сидеров: 0  [0 байт/сек]    Личеров: 0  [0 байт/сек]
Пред. тема | След. тема 

Автор
Сообщение

СообщениеДобавлено: 26 мар 2019, 20:10 

Ответить с цитатой 

Voxtrot - Voxtrot


Жанр: Indie-Rock, Indie-Pop
Год выпуска диска: 2007
Производитель диска: USA
Аудио кодек: FLAC
Тип рипа: tracks+.cue
Битрейт аудио: lossless
Продолжительность: 43:50
Трэклист:
01. Introduction 03:32
02. Kid Gloves 04:23
03. Ghost 04:49
04. Stephen 03:27
05. Firecracker 03:44
06. Brother In Conflict 04:04
07. Easy 03:36
08. Future Pt. 1 03:42
09. Every Day 04:25
10. Real Life Version 04:00
11. Blood Red Blood 04:13
X Lossless Decoder version 20090320 (105.1)
XLD extraction logfile from 2009-06-20 14:54:16 +0100
Voxtrot / Voxtrot
Used drive : HL-DT-ST DVDRW GSA-S10N (revision BP10)
Use cdparanoia mode : YES (CDParanoia III 10.2 engine)
Disable audio cache : OK for the drive with cache less than 2750KB
Make use of C2 pointers : NO
Read offset correction : 667
Max retry count : 100
TOC of the extracted CD
Track | Start | Length | Start sector | End sector
---------------------------------------------------------
1 | 00:00:00 | 03:31:72 | 0 | 15896
2 | 03:31:72 | 04:23:09 | 15897 | 35630
3 | 07:55:06 | 04:48:63 | 35631 | 57293
4 | 12:43:69 | 03:27:29 | 57294 | 72847
5 | 16:11:23 | 03:43:37 | 72848 | 89609
6 | 19:54:60 | 04:04:09 | 89610 | 107918
7 | 23:58:69 | 03:35:52 | 107919 | 124095
8 | 27:34:46 | 03:41:59 | 124096 | 140729
9 | 31:16:30 | 04:25:16 | 140730 | 160620
10 | 35:41:46 | 04:00:19 | 160621 | 178639
11 | 39:41:65 | 04:13:15 | 178640 | 197629
List of alternate offset correction values
# | Absolute | Relative | Confidence
------------------------------------------
1 | 2006 | 1339 | 6
Track 01
Filename : /Volumes/- 250Gb -/[ FLAC ]/01 Voxtrot - Introduction.flac
CRC32 hash (test run) : 2A6FFF87
CRC32 hash : 2A6FFF87
CRC32 hash (skip zero) : FF40A195
AccurateRip signature : D3DF69BF
->Accurately ripped! (confidence 4)
Statistics
Read error : 0
Skipped (treated as error) : 0
Edge jitter error (maybe fixed) : 0
Atom jitter error (maybe fixed) : 0
Drift error (maybe fixed) : 0
Dropped bytes error (maybe fixed) : 0
Duplicated bytes error (maybe fixed) : 0
Inconsistency in error sectors : 0
Track 02
Filename : /Volumes/- 250Gb -/[ FLAC ]/02 Voxtrot - Kid Gloves.flac
CRC32 hash (test run) : C0F7D3DF
CRC32 hash : C0F7D3DF
CRC32 hash (skip zero) : 107A1DC9
AccurateRip signature : 3AD7ED61
->Accurately ripped! (confidence 4)
Statistics
Read error : 0
Skipped (treated as error) : 0
Edge jitter error (maybe fixed) : 0
Atom jitter error (maybe fixed) : 0
Drift error (maybe fixed) : 0
Dropped bytes error (maybe fixed) : 0
Duplicated bytes error (maybe fixed) : 0
Inconsistency in error sectors : 0
Track 03
Filename : /Volumes/- 250Gb -/[ FLAC ]/03 Voxtrot - Ghost.flac
CRC32 hash (test run) : 577C6EA7
CRC32 hash : 577C6EA7
CRC32 hash (skip zero) : 5165AB80
AccurateRip signature : C6E72443
->Accurately ripped! (confidence 4)
Statistics
Read error : 0
Skipped (treated as error) : 0
Edge jitter error (maybe fixed) : 0
Atom jitter error (maybe fixed) : 0
Drift error (maybe fixed) : 0
Dropped bytes error (maybe fixed) : 0
Duplicated bytes error (maybe fixed) : 0
Inconsistency in error sectors : 0
Track 04
Filename : /Volumes/- 250Gb -/[ FLAC ]/04 Voxtrot - Stephen.flac
CRC32 hash (test run) : 99E24E2F
CRC32 hash : 99E24E2F
CRC32 hash (skip zero) : FD7BF652
AccurateRip signature : F946A427
->Accurately ripped! (confidence 4)
Statistics
Read error : 0
Skipped (treated as error) : 0
Edge jitter error (maybe fixed) : 0
Atom jitter error (maybe fixed) : 0
Drift error (maybe fixed) : 0
Dropped bytes error (maybe fixed) : 0
Duplicated bytes error (maybe fixed) : 0
Inconsistency in error sectors : 0
Track 05
Filename : /Volumes/- 250Gb -/[ FLAC ]/05 Voxtrot - Firecracker.flac
CRC32 hash (test run) : A8C8A5C9
CRC32 hash : A8C8A5C9
CRC32 hash (skip zero) : 281F0BAA
AccurateRip signature : C9881186
->Accurately ripped! (confidence 4)
Statistics
Read error : 0
Skipped (treated as error) : 0
Edge jitter error (maybe fixed) : 0
Atom jitter error (maybe fixed) : 0
Drift error (maybe fixed) : 0
Dropped bytes error (maybe fixed) : 0
Duplicated bytes error (maybe fixed) : 0
Inconsistency in error sectors : 0
Track 06
Filename : /Volumes/- 250Gb -/[ FLAC ]/06 Voxtrot - Brother In Conflict.flac
CRC32 hash (test run) : 768075CC
CRC32 hash : 768075CC
CRC32 hash (skip zero) : C4A1686B
AccurateRip signature : C49CD25D
->Accurately ripped! (confidence 4)
Statistics
Read error : 0
Skipped (treated as error) : 0
Edge jitter error (maybe fixed) : 0
Atom jitter error (maybe fixed) : 0
Drift error (maybe fixed) : 0
Dropped bytes error (maybe fixed) : 0
Duplicated bytes error (maybe fixed) : 0
Inconsistency in error sectors : 0
Track 07
Filename : /Volumes/- 250Gb -/[ FLAC ]/07 Voxtrot - Easy.flac
CRC32 hash (test run) : E66379B0
CRC32 hash : E66379B0
CRC32 hash (skip zero) : 0BB18FA8
AccurateRip signature : C75E018B
->Accurately ripped! (confidence 4)
Statistics
Read error : 0
Skipped (treated as error) : 0
Edge jitter error (maybe fixed) : 0
Atom jitter error (maybe fixed) : 0
Drift error (maybe fixed) : 0
Dropped bytes error (maybe fixed) : 0
Duplicated bytes error (maybe fixed) : 0
Inconsistency in error sectors : 0
Track 08
Filename : /Volumes/- 250Gb -/[ FLAC ]/08 Voxtrot - Future Pt. 1.flac
CRC32 hash (test run) : B1729DA0
CRC32 hash : B1729DA0
CRC32 hash (skip zero) : 43F2C189
AccurateRip signature : 22B6F1EF
->Accurately ripped! (confidence 4)
Statistics
Read error : 0
Skipped (treated as error) : 0
Edge jitter error (maybe fixed) : 0
Atom jitter error (maybe fixed) : 0
Drift error (maybe fixed) : 0
Dropped bytes error (maybe fixed) : 0
Duplicated bytes error (maybe fixed) : 0
Inconsistency in error sectors : 0
Track 09
Filename : /Volumes/- 250Gb -/[ FLAC ]/09 Voxtrot - Every Day.flac
CRC32 hash (test run) : 16DD8352
CRC32 hash : 16DD8352
CRC32 hash (skip zero) : A7C150D6
AccurateRip signature : 03EC0838
->Accurately ripped! (confidence 4)
Statistics
Read error : 0
Skipped (treated as error) : 0
Edge jitter error (maybe fixed) : 0
Atom jitter error (maybe fixed) : 0
Drift error (maybe fixed) : 0
Dropped bytes error (maybe fixed) : 0
Duplicated bytes error (maybe fixed) : 0
Inconsistency in error sectors : 0
Track 10
Filename : /Volumes/- 250Gb -/[ FLAC ]/10 Voxtrot - Real Life Version.flac
CRC32 hash (test run) : C22EB63E
CRC32 hash : C22EB63E
CRC32 hash (skip zero) : 65F2E3B0
AccurateRip signature : 83CC9D5B
->Accurately ripped! (confidence 4)
Statistics
Read error : 0
Skipped (treated as error) : 0
Edge jitter error (maybe fixed) : 0
Atom jitter error (maybe fixed) : 0
Drift error (maybe fixed) : 0
Dropped bytes error (maybe fixed) : 0
Duplicated bytes error (maybe fixed) : 0
Inconsistency in error sectors : 0
Track 11
Filename : /Volumes/- 250Gb -/[ FLAC ]/11 Voxtrot - Blood Red Shoes.flac
CRC32 hash (test run) : 83FA2051
CRC32 hash : 83FA2051
CRC32 hash (skip zero) : 7114EEAE
AccurateRip signature : DBCB2E88
->Accurately ripped! (confidence 4)
Statistics
Read error : 0
Skipped (treated as error) : 0
Edge jitter error (maybe fixed) : 0
Atom jitter error (maybe fixed) : 0
Drift error (maybe fixed) : 0
Dropped bytes error (maybe fixed) : 0
Duplicated bytes error (maybe fixed) : 0
Inconsistency in error sectors : 0
No errors occurred
End of status report
Не забываем говорить "Спасибо" за хороший материал
Правила, инструкции, FAQ!!!
Торрент  Добавлен [26 мар 2019, 20:10] Скачать торрент Магнет ссылка
Скачать торрент
[ Размер 24.82 КБ / Просмотров 1 ]

Статус
Проверен 
 
Размер  293.69 МБ
Приватный: Нет (DHT включён)
.torrent скачан  0
 


     Отправить личное сообщение
   
Страница 1 из 1
Показать сообщения за:  Поле сортировки  
Начать новую тему Ответить на тему


Сейчас этот форум просматривают: нет зарегистрированных пользователей и гости: 0


Вы не можете начинать темы
Вы не можете отвечать на сообщения
Вы не можете редактировать свои сообщения
Вы не можете удалять свои сообщения
Вы не можете добавлять вложения

Перейти:  
cron