Начать новую тему Ответить на тему
Статистика раздачи
Размер: 339.59 МБ | Добавлен: 26 мар 2019, 20:30 | Скачали: 0
Сидеров: 0  [0 байт/сек]    Личеров: 0  [0 байт/сек]
Пред. тема | След. тема 

Автор
Сообщение

СообщениеДобавлено: 26 мар 2019, 20:30 

Ответить с цитатой 

Jenny Wilson - Love and Youth Deluxe Edition

Жанр: Indie-Rock, Indie-Pop
Страна-производитель диска: Sweden
Год издания диска: 2005
Издатель (лейбл): Rabid Records
Номер по каталогу: RABID 025
Страна: Sweden
Аудио кодек: FLAC (*.flac)
Тип рипа: tracks
Битрейт аудио: lossless
Продолжительность: 01:00:00
Источник (релизер): What.CD
Наличие сканов в содержимом раздачи: нет
Треклист:
01. Crazy Summer (3:16)
02. Summertime - The Roughest Time (3:30)
03. Let My Shoes Lead Me Forward (4:25)
04. Those Winters (3:31)
05. Bitter? No, I Just Love To Complain (4:21)
06. Would I Play With My Band? (4:05)
07. Love And Youth (4:32)
08. A Hesitating Cloud Of Despair (3:05)
09. Love Ain't Just A Four Letter Word (5:07)
10. Common Around Here (4:07)
11. Hey, What's The Matter? (4:56)
12. Balcony Smoker (2:31)
Bonus Tracks:
13. A Brief Story (4:40)
14. Let My Shoes Lead Me Forward (The Knife remix) (4:05)
15. Let My Shoes Lead Me Forward (Joachime remix) (3:59)
Код:
[color=darkgreen]Exact Audio Copy V0.99 prebeta 5 from 4. May 2009
[/color]EAC extraction logfile from 11. December 2009, 18:22
Jenny Wilson / Love and Youth
Used drive  : HL-DT-STDVDRAM GSA-T50L   Adapter: 1  ID: 0
Read mode               : Secure
Utilize accurate stream : Yes
Defeat audio cache      : Yes
Make use of C2 pointers : No
Read offset correction                      : 667
Overread into Lead-In and Lead-Out          : No
Fill up missing offset samples with silence : Yes
Delete leading and trailing silent blocks   : No
Null samples used in CRC calculations       : Yes
Used interface                              : Native Win32 interface for Win NT & 2000
Gap handling                                : Appended to previous track
Used output format              : User Defined Encoder
Selected bitrate                : 320 kBit/s
Quality                         : High
Add ID3 tag                     : No
Command line compressor         : C:\Program Files\Exact Audio Copy\FLAC\FLAC.EXE
Additional command line options : -6 -V -T "ARTIST=%a" -T "TITLE=%t" -T "ALBUM=%g" -T "DATE=%y" -T "TRACKNUMBER=%n" -T "GENRE=%m" -T "COMMENT=%e" %s -o %d
TOC of the extracted CD
     Track |   Start  |  Length  | Start sector | End sector
    ---------------------------------------------------------
        1  |  0:00.00 |  3:16.02 |         0    |    14701
        2  |  3:16.02 |  3:30.15 |     14702    |    30466
        3  |  6:46.17 |  4:25.40 |     30467    |    50381
        4  | 11:11.57 |  3:31.21 |     50382    |    66227
        5  | 14:43.03 |  4:21.70 |     66228    |    85872
        6  | 19:04.73 |  4:05.67 |     85873    |   104314
        7  | 23:10.65 |  4:32.53 |    104315    |   124767
        8  | 27:43.43 |  3:05.46 |    124768    |   138688
        9  | 30:49.14 |  5:07.72 |    138689    |   161785
       10  | 35:57.11 |  4:07.63 |    161786    |   180373
       11  | 40:04.74 |  4:56.06 |    180374    |   202579
       12  | 45:01.05 |  2:36.71 |    202580    |   214350
       13  | 47:38.01 |  4:40.46 |    214351    |   235396
       14  | 52:18.47 |  4:04.57 |    235397    |   253753
       15  | 56:23.29 |  3:58.74 |    253754    |   271677
Track  1
     Filename C:\Users\ExpertValbo\Documents\Crazy Summer.wav
     Pre-gap length  0:00:02.00
     Peak level 99.9 %
     Track quality 100.0 %
     Test CRC A16AC604
     Copy CRC A16AC604
     Track not present in AccurateRip database
     Copy OK
Track  2
     Filename C:\Users\ExpertValbo\Documents\Summer Time - The Roughest Time.wav
     Peak level 99.9 %
     Track quality 99.9 %
     Test CRC A0BC1B27
     Copy CRC A0BC1B27
     Track not present in AccurateRip database
     Copy OK
Track  3
     Filename C:\Users\ExpertValbo\Documents\Let My Shoes Lead Me Forward.wav
     Peak level 99.9 %
     Track quality 100.0 %
     Test CRC 82296639
     Copy CRC 82296639
     Track not present in AccurateRip database
     Copy OK
Track  4
     Filename C:\Users\ExpertValbo\Documents\Those Winters.wav
     Peak level 99.9 %
     Track quality 100.0 %
     Test CRC 946EDE12
     Copy CRC 946EDE12
     Track not present in AccurateRip database
     Copy OK
Track  5
     Filename C:\Users\ExpertValbo\Documents\Bitter  No, I Just Love to Complain.wav
     Peak level 99.9 %
     Track quality 100.0 %
     Test CRC 244B16B7
     Copy CRC 244B16B7
     Track not present in AccurateRip database
     Copy OK
Track  6
     Filename C:\Users\ExpertValbo\Documents\Would I Play With My Band .wav
     Peak level 99.9 %
     Track quality 100.0 %
     Test CRC 326A8BBC
     Copy CRC 326A8BBC
     Track not present in AccurateRip database
     Copy OK
Track  7
     Filename C:\Users\ExpertValbo\Documents\Love and Youth.wav
     Peak level 99.9 %
     Track quality 100.0 %
     Test CRC 7FD7360F
     Copy CRC 7FD7360F
     Track not present in AccurateRip database
     Copy OK
Track  8
     Filename C:\Users\ExpertValbo\Documents\A Hesitating Cloud of Despair.wav
     Peak level 99.9 %
     Track quality 99.9 %
     Test CRC 6020AFD1
     Copy CRC 6020AFD1
     Track not present in AccurateRip database
     Copy OK
Track  9
     Filename C:\Users\ExpertValbo\Documents\Love Ain't Just a Four Letter Word.wav
     Peak level 99.9 %
     Track quality 100.0 %
     Test CRC F829BAED
     Copy CRC F829BAED
     Track not present in AccurateRip database
     Copy OK
Track 10
     Filename C:\Users\ExpertValbo\Documents\Common Around Here.wav
     Peak level 99.9 %
     Track quality 100.0 %
     Test CRC 7A4DB2BD
     Copy CRC 7A4DB2BD
     Track not present in AccurateRip database
     Copy OK
Track 11
     Filename C:\Users\ExpertValbo\Documents\Hey, What's the Matter .wav
     Peak level 99.9 %
     Track quality 100.0 %
     Test CRC 8DEE5956
     Copy CRC 8DEE5956
     Track not present in AccurateRip database
     Copy OK
Track 12
     Filename C:\Users\ExpertValbo\Documents\Balcony Smoker.wav
     Peak level 99.9 %
     Track quality 100.0 %
     Test CRC DEE60EDC
     Copy CRC DEE60EDC
     Track not present in AccurateRip database
     Copy OK
Track 13
     Filename C:\Users\ExpertValbo\Documents\A Brief Story.wav
     Pre-gap length  0:00:05.00
     Peak level 98.8 %
     Track quality 100.0 %
     Test CRC ACF88EF6
     Copy CRC ACF88EF6
     Track not present in AccurateRip database
     Copy OK
Track 14
     Filename C:\Users\ExpertValbo\Documents\Let My Shoes Lead Me Forward (The Knife remix).wav
     Peak level 98.8 %
     Track quality 100.0 %
     Test CRC C93E5958
     Copy CRC C93E5958
     Track not present in AccurateRip database
     Copy OK
Track 15
     Filename C:\Users\ExpertValbo\Documents\Let My Shoes Lead Me Forward (Joachime remix).wav
     Peak level 98.8 %
     Track quality 100.0 %
     Test CRC E7B7D89D
     Copy CRC E7B7D89D
     Track not present in AccurateRip database
     Copy OK
None of the tracks are present in the AccurateRip database
No errors occurred
End of status report
Правила, инструкции, FAQ!!!
Торрент  Добавлен [26 мар 2019, 20:30] Скачать торрент Магнет ссылка
Скачать торрент
[ Размер 14.77 КБ / Просмотров 3 ]

Статус
Проверен 
 
Размер  339.59 МБ
Приватный: Нет (DHT включён)
.torrent скачан  0
 


     Отправить личное сообщение
   
Страница 1 из 1
Показать сообщения за:  Поле сортировки  
Начать новую тему Ответить на тему


Сейчас этот форум просматривают: нет зарегистрированных пользователей и гости: 0


Вы не можете начинать темы
Вы не можете отвечать на сообщения
Вы не можете редактировать свои сообщения
Вы не можете удалять свои сообщения
Вы не можете добавлять вложения

Перейти:  
cron