Начать новую тему Ответить на тему
Статистика раздачи
Размер: 462.59 МБ | Добавлен: 28 июл 2019, 23:02 | Скачали: 1
Сидеров: 0  [0 байт/сек]    Личеров: 0  [0 байт/сек]
Пред. тема | След. тема 

Автор
Сообщение

СообщениеДобавлено: 28 июл 2019, 23:02 

Ответить с цитатой 

The Cure - Unplugged and More [Unofficial Compilation]
Жанр: Indie / Post Punk / Acoustic
Год выпуска: 1991
Носитель: CD
Производитель: Not On Label CDLC001 [UK]
Аудио кодек: FLAC
Тип рипа: tracks+.cue
Битрейт аудио: lossless
Продолжительность: 01h:13m:19s
Discogs.com
tracklisting:
01. Let's Go to Bed (unplugged)
02. Just Like Heaven (unplugged)
03. The Caterpillar (unplugged)
04. The Blood (unplugged)
05. Boys Don't Cry (unplugged)
06. The Walk (unplugged)
07. If Only Tonight... (unplugged)
08. The Holy Hour
09. In Your House
10. The Drowning Man
11. 10:15 Saturday Night
12. Accuracy
13. The Funeral Party
14. M
15. Primary
16. Other Voices
17. All Cats Are Grey
18. Fire in Cairo
19. Play for Today
tracks 1-7: Unplugged MTV Show 3/3/1991
tracks 8-19: Werchter Rock Festival Belgium 5/7/1981
Код:
Exact Audio Copy V0.99 prebeta 5 from 4. May 2009
EAC extraction logfile from 20. June 2009, 13:59
The Cure / Unplugged and More
Used drive  : HL-DT-STDVDRAM GSA-4167B   Adapter: 0  ID: 0
Read mode               : Secure
Utilize accurate stream : Yes
Defeat audio cache      : Yes
Make use of C2 pointers : No
Read offset correction                      : 667
Overread into Lead-In and Lead-Out          : No
Fill up missing offset samples with silence : Yes
Delete leading and trailing silent blocks   : No
Null samples used in CRC calculations       : Yes
Used interface                              : Native Win32 interface for Win NT & 2000
Gap handling                                : Not detected, thus appended to previous track
Used output format              : User Defined Encoder
Selected bitrate                : 768 kBit/s
Quality                         : High
Add ID3 tag                     : No
Command line compressor         : C:\Programmes\Exact Audio Copy\FLAC\FLAC.EXE
Additional command line options : -8 -V -T "ARTIST=%a" -T "TITLE=%t" -T "ALBUM=%g" -T "DATE=%y" -T "TRACKNUMBER=%n" -T "GENRE=%m" -T "COMMENT=%e" %s -o %d
TOC of the extracted CD
     Track |   Start  |  Length  | Start sector | End sector
    ---------------------------------------------------------
        1  |  0:00.00 |  3:34.57 |         0    |    16106
        2  |  3:34.57 |  3:39.58 |     16107    |    32589
        3  |  7:14.40 |  4:17.10 |     32590    |    51874
        4  | 11:31.50 |  3:31.52 |     51875    |    67751
        5  | 15:03.27 |  3:22.45 |     67752    |    82946
        6  | 18:25.72 |  3:19.13 |     82947    |    97884
        7  | 21:45.10 |  1:07.27 |     97885    |   102936
        8  | 22:52.37 |  4:41.33 |    102937    |   124044
        9  | 27:33.70 |  3:48.50 |    124045    |   141194
       10  | 31:22.45 |  5:15.27 |    141195    |   164846
       11  | 36:37.72 |  3:56.45 |    164847    |   182591
       12  | 40:34.42 |  2:59.38 |    182592    |   196054
       13  | 43:34.05 |  4:32.45 |    196055    |   216499
       14  | 48:06.50 |  3:46.67 |    216500    |   233516
       15  | 51:53.42 |  5:00.53 |    233517    |   256069
       16  | 56:54.20 |  4:46.05 |    256070    |   277524
       17  | 61:40.25 |  5:05.40 |    277525    |   300439
       18  | 66:45.65 |  2:52.40 |    300440    |   313379
       19  | 69:38.30 |  3:40.65 |    313380    |   329944
Track  1
     Filename C:\The Cure - Unplugged and More - (01) - Let's Go To Bed-unplugged.wav
     Peak level 90.0 %
     Track quality 100.0 %
     Copy CRC 98312B89
     Track not present in AccurateRip database
     Copy OK
Track  2
     Filename C:\The Cure - Unplugged and More - (02) - Just Like Heaven-unplugged.wav
     Peak level 87.8 %
     Track quality 100.0 %
     Copy CRC B657F4E2
     Track not present in AccurateRip database
     Copy OK
Track  3
     Filename C:\The Cure - Unplugged and More - (03) - The Caterpillar-unplugged.wav
     Peak level 86.8 %
     Track quality 100.0 %
     Copy CRC 19601E16
     Track not present in AccurateRip database
     Copy OK
Track  4
     Filename C:\The Cure - Unplugged and More - (04) - The Blood-unplugged.wav
     Peak level 88.8 %
     Track quality 100.0 %
     Copy CRC C6B91DF0
     Track not present in AccurateRip database
     Copy OK
Track  5
     Filename C:\The Cure - Unplugged and More - (05) - Boys Don't Cry-unplugged.wav
     Peak level 88.0 %
     Track quality 100.0 %
     Copy CRC F083B0B9
     Track not present in AccurateRip database
     Copy OK
Track  6
     Filename C:\The Cure - Unplugged and More - (06) - The Walk-unplugged.wav
     Peak level 88.5 %
     Track quality 100.0 %
     Copy CRC 5541AC7B
     Track not present in AccurateRip database
     Copy OK
Track  7
     Filename C:\The Cure - Unplugged and More - (07) - If Only Tonight... unplugged.wav
     Peak level 93.7 %
     Track quality 100.0 %
     Copy CRC 9FC7BF58
     Track not present in AccurateRip database
     Copy OK
Track  8
     Filename C:\The Cure - Unplugged and More - (08) - The Holy Hour.wav
     Peak level 88.4 %
     Track quality 100.0 %
     Copy CRC FF9EEC24
     Track not present in AccurateRip database
     Copy OK
Track  9
     Filename C:\The Cure - Unplugged and More - (09) - In Your House.wav
     Peak level 86.6 %
     Track quality 100.0 %
     Copy CRC 17ED3F16
     Track not present in AccurateRip database
     Copy OK
Track 10
     Filename C:\The Cure - Unplugged and More - (10) - The Drowning Man.wav
     Peak level 87.2 %
     Track quality 100.0 %
     Copy CRC 04C93376
     Track not present in AccurateRip database
     Copy OK
Track 11
     Filename C:\The Cure - Unplugged and More - (11) - 10-15 Saturday Night.wav
     Peak level 87.2 %
     Track quality 100.0 %
     Copy CRC 0787AC42
     Track not present in AccurateRip database
     Copy OK
Track 12
     Filename C:\The Cure - Unplugged and More - (12) - Accuracy.wav
     Peak level 87.0 %
     Track quality 100.0 %
     Copy CRC FDACCF54
     Track not present in AccurateRip database
     Copy OK
Track 13
     Filename C:\The Cure - Unplugged and More - (13) - The Funeral Party.wav
     Peak level 85.9 %
     Track quality 99.9 %
     Copy CRC 7183DD24
     Track not present in AccurateRip database
     Copy OK
Track 14
     Filename C:\The Cure - Unplugged and More - (14) - M.wav
     Peak level 86.8 %
     Track quality 100.0 %
     Copy CRC DEA7D1B1
     Track not present in AccurateRip database
     Copy OK
Track 15
     Filename C:\The Cure - Unplugged and More - (15) - Primary.wav
     Peak level 86.4 %
     Track quality 100.0 %
     Copy CRC 3923B456
     Track not present in AccurateRip database
     Copy OK
Track 16
     Filename C:\The Cure - Unplugged and More - (16) - Other Voices.wav
     Peak level 87.9 %
     Track quality 100.0 %
     Copy CRC 613C17C5
     Track not present in AccurateRip database
     Copy OK
Track 17
     Filename C:\The Cure - Unplugged and More - (17) - All Cats Are Grey.wav
     Peak level 88.2 %
     Track quality 100.0 %
     Copy CRC 8B18DB02
     Track not present in AccurateRip database
     Copy OK
Track 18
     Filename C:\The Cure - Unplugged and More - (18) - Fire In Cairo.wav
     Peak level 85.3 %
     Track quality 100.0 %
     Copy CRC CBEA30D9
     Track not present in AccurateRip database
     Copy OK
Track 19
     Filename C:\The Cure - Unplugged and More - (19) - Play For Today.wav
     Peak level 84.3 %
     Track quality 99.9 %
     Copy CRC 0EE37B33
     Track not present in AccurateRip database
     Copy OK
None of the tracks are present in the AccurateRip database
No errors occurred
End of status report
Код:
REM GENRE Rock
REM DATE 1991
REM DISCID 0B112F13
REM COMMENT "ExactAudioCopy v0.99pb5"
PERFORMER "The Cure"
TITLE "Unplugged and More"
FILE "The Cure - Unplugged and More - (01) - Let's Go To Bed-unplugged.flac" WAVE
  TRACK 01 AUDIO
    TITLE "Let's Go To Bed-unplugged"
    PERFORMER "The Cure"
    INDEX 01 00:00:00
FILE "The Cure - Unplugged and More - (02) - Just Like Heaven-unplugged.flac" WAVE
  TRACK 02 AUDIO
    TITLE "Just Like Heaven-unplugged"
    PERFORMER "The Cure"
    PREGAP 00:00:06
    INDEX 01 00:00:00
FILE "The Cure - Unplugged and More - (03) - The Caterpillar-unplugged.flac" WAVE
  TRACK 03 AUDIO
    TITLE "The Caterpillar-unplugged"
    PERFORMER "The Cure"
    PREGAP 00:00:07
    INDEX 01 00:00:00
FILE "The Cure - Unplugged and More - (04) - The Blood-unplugged.flac" WAVE
  TRACK 04 AUDIO
    TITLE "The Blood-unplugged"
    PERFORMER "The Cure"
    PREGAP 00:00:06
    INDEX 01 00:00:00
FILE "The Cure - Unplugged and More - (05) - Boys Don't Cry-unplugged.flac" WAVE
  TRACK 05 AUDIO
    TITLE "Boys Don't Cry-unplugged"
    PERFORMER "The Cure"
    PREGAP 00:00:06
    INDEX 01 00:00:00
FILE "The Cure - Unplugged and More - (06) - The Walk-unplugged.flac" WAVE
  TRACK 06 AUDIO
    TITLE "The Walk-unplugged"
    PERFORMER "The Cure"
    PREGAP 00:00:06
    INDEX 01 00:00:00
FILE "The Cure - Unplugged and More - (07) - If Only Tonight... unplugged.flac" WAVE
  TRACK 07 AUDIO
    TITLE "If Only Tonight... unplugged"
    PERFORMER "The Cure"
    PREGAP 00:00:06
    INDEX 01 00:00:00
FILE "The Cure - Unplugged and More - (08) - The Holy Hour.flac" WAVE
  TRACK 08 AUDIO
    TITLE "The Holy Hour"
    PERFORMER "The Cure"
    PREGAP 00:00:06
    INDEX 01 00:00:00
FILE "The Cure - Unplugged and More - (09) - In Your House.flac" WAVE
  TRACK 09 AUDIO
    TITLE "In Your House"
    PERFORMER "The Cure"
    PREGAP 00:00:06
    INDEX 01 00:00:00
FILE "The Cure - Unplugged and More - (10) - The Drowning Man.flac" WAVE
  TRACK 10 AUDIO
    TITLE "The Drowning Man"
    PERFORMER "The Cure"
    PREGAP 00:00:06
    INDEX 01 00:00:00
FILE "The Cure - Unplugged and More - (11) - 10-15 Saturday Night.flac" WAVE
  TRACK 11 AUDIO
    TITLE "10:15 Saturday Night"
    PERFORMER "The Cure"
    PREGAP 00:00:06
    INDEX 01 00:00:00
FILE "The Cure - Unplugged and More - (12) - Accuracy.flac" WAVE
  TRACK 12 AUDIO
    TITLE "Accuracy"
    PERFORMER "The Cure"
    INDEX 01 00:00:00
FILE "The Cure - Unplugged and More - (13) - The Funeral Party.flac" WAVE
  TRACK 13 AUDIO
    TITLE "The Funeral Party"
    PERFORMER "The Cure"
    PREGAP 00:00:07
    INDEX 01 00:00:00
FILE "The Cure - Unplugged and More - (14) - M.flac" WAVE
  TRACK 14 AUDIO
    TITLE "M"
    PERFORMER "The Cure"
    PREGAP 00:00:06
    INDEX 01 00:00:00
FILE "The Cure - Unplugged and More - (15) - Primary.flac" WAVE
  TRACK 15 AUDIO
    TITLE "Primary"
    PERFORMER "The Cure"
    PREGAP 00:00:10
    INDEX 01 00:00:00
FILE "The Cure - Unplugged and More - (16) - Other Voices.flac" WAVE
  TRACK 16 AUDIO
    TITLE "Other Voices"
    PERFORMER "The Cure"
    PREGAP 00:00:06
    INDEX 01 00:00:00
FILE "The Cure - Unplugged and More - (17) - All Cats Are Grey.flac" WAVE
  TRACK 17 AUDIO
    TITLE "All Cats Are Grey"
    PERFORMER "The Cure"
    PREGAP 00:00:06
    INDEX 01 00:00:00
FILE "The Cure - Unplugged and More - (18) - Fire In Cairo.flac" WAVE
  TRACK 18 AUDIO
    TITLE "Fire In Cairo"
    PERFORMER "The Cure"
    PREGAP 00:00:06
    INDEX 01 00:00:00
FILE "The Cure - Unplugged and More - (19) - Play For Today.flac" WAVE
  TRACK 19 AUDIO
    TITLE "Play For Today"
    PERFORMER "The Cure"
    PREGAP 00:00:06
    INDEX 01 00:00:00
Правила, инструкции, FAQ!!!
Торрент  Добавлен [28 июл 2019, 23:02] Скачать торрент Магнет ссылка
Скачать торрент
[ Размер 20.68 КБ / Просмотров 6 ]

Статус
Проверен 
 
Размер  462.59 МБ
Приватный: Нет (DHT включён)
.torrent скачан  1
 


     Отправить личное сообщение
   

СообщениеДобавлено: 25 июн 2020, 22:07 

Ответить с цитатой 

Зарегистрированные пользователи
Зарегистрированные пользователи

Стаж: 1 месяц 3 дня
Раздал: 292.01 МБ
Скачал: 0 байт
Ратио: Seed.
Торренты: 0
Большое спасибо. Хорошая команда. :ay:


Профиль     Отправить личное сообщение
   
Страница 1 из 1
Показать сообщения за:  Поле сортировки  
Начать новую тему Ответить на тему


Сейчас этот форум просматривают: нет зарегистрированных пользователей и гости: 0


Вы не можете начинать темы
Вы не можете отвечать на сообщения
Вы не можете редактировать свои сообщения
Вы не можете удалять свои сообщения
Вы не можете добавлять вложения

Перейти:  
cron