Начать новую тему Ответить на тему
Статистика раздачи
Размер: 276.36 МБ | Добавлен: 26 мар 2019, 19:31 | Скачали: 0
Сидеров: 0  [0 байт/сек]    Личеров: 0  [0 байт/сек]
Пред. тема | След. тема 

Автор
Сообщение

СообщениеДобавлено: 26 мар 2019, 19:31 

Ответить с цитатой 

Ryan Hamilton & The Traitors / Devil's In The Detail
Жанр: Indie Pop Rock, Glam Rock, Power Pop
Носитель: CD
Страна-производитель диска (релиза): UK
Год издания: 2017
Издатель (лейбл): Fannypack Records
Номер по каталогу: 18831
Аудиокодек: FLAC (*.flac)
Тип рипа: tracks+.cue
Битрейт аудио: lossless
Продолжительность: 41:10
Источник (релизер): Zoloft
Наличие сканов в содержимом раздачи: да
Треклист:
01. Smarter
02. We Never Should Have Moved To L.A.
03. Anywhere
04. Heavy Heart
05. Scottish Mud
06. Back In Time
07. The Gulf Of Mexico
08. Cheaters Never Change
09. Drugs & Fashion
10. Strength In Numbers
11. Don't Say I Told You So (featuring Chrissy Barnacle)
12. It Ain't Easy
Код:
Exact Audio Copy V1.3 from 2. September 2016
EAC extraction logfile from 4. February 2017, 19:47
Ryan Hamilton And The Traitors / The Devil's In The Detail
Used drive  : ASUS    SDRW-08U5S-U   Adapter: 1  ID: 1
Read mode               : Secure
Utilize accurate stream : Yes
Defeat audio cache      : Yes
Make use of C2 pointers : No
Read offset correction                      : 6
Overread into Lead-In and Lead-Out          : No
Fill up missing offset samples with silence : Yes
Delete leading and trailing silent blocks   : No
Null samples used in CRC calculations       : Yes
Used interface                              : Native Win32 interface for Win NT & 2000
Gap handling                                : Appended to previous track
Used output format              : User Defined Encoder
Selected bitrate                : 128 kBit/s
Quality                         : High
Add ID3 tag                     : No
Command line compressor         : C:\Program Files (x86)\Exact Audio Copy\Flac\flac.exe
Additional command line options : -8 -V -T "ARTIST=%artist%" -T "TITLE=%title%" -T "ALBUM=%albumtitle%" -T "DATE=%year%" -T "TRACKNUMBER=%tracknr%" -T "TOTALTRACKS=%numtracks%" -T "GENRE=%genre%" -T "ALBUMARTIST=%albumartist%" -T "ALBUM ARTIST=%albumartist%" -T "COMMENT=EAC Secure Mode, Test & Copy, AccurateRip, FLAC -8" %source%
TOC of the extracted CD
     Track |   Start  |  Length  | Start sector | End sector
    ---------------------------------------------------------
        1  |  0:00.00 |  3:12.07 |         0    |    14406
        2  |  3:12.07 |  3:22.53 |     14407    |    29609
        3  |  6:34.60 |  3:13.69 |     29610    |    44153
        4  |  9:48.54 |  4:19.39 |     44154    |    63617
        5  | 14:08.18 |  2:54.43 |     63618    |    76710
        6  | 17:02.61 |  2:02.11 |     76711    |    85871
        7  | 19:04.72 |  2:38.74 |     85872    |    97795
        8  | 21:43.71 |  3:53.47 |     97796    |   115317
        9  | 25:37.43 |  3:24.67 |    115318    |   130684
       10  | 29:02.35 |  2:38.49 |    130685    |   142583
       11  | 31:41.09 |  3:51.48 |    142584    |   159956
       12  | 35:32.57 |  5:36.64 |    159957    |   185220
Track  1
     Filename E:\Uploads\Ryan Hamilton And The Traitors - The Devil's In The Detail (2017) [FLAC]\01 - Smarter.wav
     Pre-gap length  0:00:02.00
     Peak level 100.0 %
     Extraction speed 2.2 X
     Track quality 100.0 %
     Test CRC 8F55FE7C
     Copy CRC 8F55FE7C
     Track not present in AccurateRip database
     Copy OK
Track  2
     Filename E:\Uploads\Ryan Hamilton And The Traitors - The Devil's In The Detail (2017) [FLAC]\02 - We Never Should Have Moved To L.A..wav
     Peak level 100.0 %
     Extraction speed 2.6 X
     Track quality 100.0 %
     Test CRC A5D2CEFB
     Copy CRC A5D2CEFB
     Track not present in AccurateRip database
     Copy OK
Track  3
     Filename E:\Uploads\Ryan Hamilton And The Traitors - The Devil's In The Detail (2017) [FLAC]\03 - Anywhere.wav
     Peak level 100.0 %
     Extraction speed 2.7 X
     Track quality 100.0 %
     Test CRC 2DD67226
     Copy CRC 2DD67226
     Track not present in AccurateRip database
     Copy OK
Track  4
     Filename E:\Uploads\Ryan Hamilton And The Traitors - The Devil's In The Detail (2017) [FLAC]\04 - Heavy Heart.wav
     Peak level 100.0 %
     Extraction speed 2.9 X
     Track quality 100.0 %
     Test CRC ECA5410D
     Copy CRC ECA5410D
     Track not present in AccurateRip database
     Copy OK
Track  5
     Filename E:\Uploads\Ryan Hamilton And The Traitors - The Devil's In The Detail (2017) [FLAC]\05 - Scottish Mud.wav
     Peak level 100.0 %
     Extraction speed 2.8 X
     Track quality 100.0 %
     Test CRC E090DBD8
     Copy CRC E090DBD8
     Track not present in AccurateRip database
     Copy OK
Track  6
     Filename E:\Uploads\Ryan Hamilton And The Traitors - The Devil's In The Detail (2017) [FLAC]\06 - Back In Time.wav
     Peak level 100.0 %
     Extraction speed 2.0 X
     Track quality 99.9 %
     Test CRC 3B6E12C0
     Copy CRC 3B6E12C0
     Track not present in AccurateRip database
     Copy OK
Track  7
     Filename E:\Uploads\Ryan Hamilton And The Traitors - The Devil's In The Detail (2017) [FLAC]\07 - The Gulf Of Mexico.wav
     Peak level 100.0 %
     Extraction speed 3.0 X
     Track quality 100.0 %
     Test CRC 8BDA49A0
     Copy CRC 8BDA49A0
     Track not present in AccurateRip database
     Copy OK
Track  8
     Filename E:\Uploads\Ryan Hamilton And The Traitors - The Devil's In The Detail (2017) [FLAC]\08 - Cheaters Never Change.wav
     Peak level 100.0 %
     Extraction speed 3.4 X
     Track quality 100.0 %
     Test CRC BA14136E
     Copy CRC BA14136E
     Track not present in AccurateRip database
     Copy OK
Track  9
     Filename E:\Uploads\Ryan Hamilton And The Traitors - The Devil's In The Detail (2017) [FLAC]\09 - Drugs And Fashion.wav
     Peak level 100.0 %
     Extraction speed 3.4 X
     Track quality 100.0 %
     Test CRC 049DFF9D
     Copy CRC 049DFF9D
     Track not present in AccurateRip database
     Copy OK
Track 10
     Filename E:\Uploads\Ryan Hamilton And The Traitors - The Devil's In The Detail (2017) [FLAC]\10 - Strength In Numbers.wav
     Peak level 100.0 %
     Extraction speed 3.6 X
     Track quality 100.0 %
     Test CRC A4F58BB4
     Copy CRC A4F58BB4
     Track not present in AccurateRip database
     Copy OK
Track 11
     Filename E:\Uploads\Ryan Hamilton And The Traitors - The Devil's In The Detail (2017) [FLAC]\11 - Don't Say I Told You So.wav
     Peak level 100.0 %
     Extraction speed 3.7 X
     Track quality 100.0 %
     Test CRC 3968E810
     Copy CRC 3968E810
     Track not present in AccurateRip database
     Copy OK
Track 12
     Filename E:\Uploads\Ryan Hamilton And The Traitors - The Devil's In The Detail (2017) [FLAC]\12 - It Ain't Easy.wav
     Peak level 100.0 %
     Extraction speed 3.9 X
     Track quality 100.0 %
     Test CRC B0AC0BB3
     Copy CRC B0AC0BB3
     Track not present in AccurateRip database
     Copy OK
None of the tracks are present in the AccurateRip database
No errors occurred
End of status report
---- CUETools DB Plugin V2.1.6
[CTDB TOCID: jHGcpsubtTC3W4Oowr7MqwuiN5U-] disk not present in database
Submit result: jHGcpsubtTC3W4Oowr7MqwuiN5U- has been uploaded
==== Log checksum 0D33B70FFF59B1BA5A66BF80ED33D943A550D9CAB45E0CE0C84614E59A83817D ====
Код:
REM GENRE Rock
REM DATE 2017
REM DISCID 9209A50C
REM COMMENT "ExactAudioCopy v1.3"
PERFORMER "Ryan Hamilton And The Traitors"
TITLE "The Devil's In The Detail"
REM COMPOSER ""
FILE "01 - Smarter.wav" WAVE
  TRACK 01 AUDIO
    TITLE "Smarter"
    PERFORMER "Ryan Hamilton And The Traitors"
    REM COMPOSER ""
    INDEX 01 00:00:00
FILE "02 - We Never Should Have Moved To L.A..wav" WAVE
  TRACK 02 AUDIO
    TITLE "We Never Should Have Moved To L.A."
    PERFORMER "Ryan Hamilton And The Traitors"
    REM COMPOSER ""
    INDEX 01 00:00:00
FILE "03 - Anywhere.wav" WAVE
  TRACK 03 AUDIO
    TITLE "Anywhere"
    PERFORMER "Ryan Hamilton And The Traitors"
    REM COMPOSER ""
    INDEX 01 00:00:00
FILE "04 - Heavy Heart.wav" WAVE
  TRACK 04 AUDIO
    TITLE "Heavy Heart"
    PERFORMER "Ryan Hamilton And The Traitors"
    REM COMPOSER ""
    INDEX 01 00:00:00
FILE "05 - Scottish Mud.wav" WAVE
  TRACK 05 AUDIO
    TITLE "Scottish Mud"
    PERFORMER "Ryan Hamilton And The Traitors"
    REM COMPOSER ""
    INDEX 01 00:00:00
FILE "06 - Back In Time.wav" WAVE
  TRACK 06 AUDIO
    TITLE "Back In Time"
    PERFORMER "Ryan Hamilton And The Traitors"
    REM COMPOSER ""
    INDEX 01 00:00:00
FILE "07 - The Gulf Of Mexico.wav" WAVE
  TRACK 07 AUDIO
    TITLE "The Gulf Of Mexico"
    PERFORMER "Ryan Hamilton And The Traitors"
    REM COMPOSER ""
    INDEX 01 00:00:00
FILE "08 - Cheaters Never Change.wav" WAVE
  TRACK 08 AUDIO
    TITLE "Cheaters Never Change"
    PERFORMER "Ryan Hamilton And The Traitors"
    REM COMPOSER ""
    INDEX 01 00:00:00
FILE "09 - Drugs And Fashion.wav" WAVE
  TRACK 09 AUDIO
    TITLE "Drugs And Fashion"
    PERFORMER "Ryan Hamilton And The Traitors"
    REM COMPOSER ""
    INDEX 01 00:00:00
FILE "10 - Strength In Numbers.wav" WAVE
  TRACK 10 AUDIO
    TITLE "Strength In Numbers"
    PERFORMER "Ryan Hamilton And The Traitors"
    REM COMPOSER ""
    INDEX 01 00:00:00
FILE "11 - Don't Say I Told You So.wav" WAVE
  TRACK 11 AUDIO
    TITLE "Don't Say I Told You So"
    PERFORMER "Ryan Hamilton And The Traitors"
    REM COMPOSER ""
    INDEX 01 00:00:00
FILE "12 - It Ain't Easy.wav" WAVE
  TRACK 12 AUDIO
    TITLE "It Ain't Easy"
    PERFORMER "Ryan Hamilton And The Traitors"
    REM COMPOSER ""
    INDEX 01 00:00:00
Код:
foobar2000 1.1.10 / Dynamic Range Meter 1.1.1
log date: 2017-02-14 16:35:20
--------------------------------------------------------------------------------
Analyzed: Ryan Hamilton And The Traitors / The Devil's In The Detail
--------------------------------------------------------------------------------
DR         Peak         RMS     Duration Track
--------------------------------------------------------------------------------
DR6        0.00 dB    -7.46 dB      3:12 ?-Smarter
DR7        0.00 dB    -7.54 dB      3:23 ?-We Never Should Have Moved To L.A.
DR7        0.00 dB    -8.78 dB      3:14 ?-Anywhere
DR7        0.00 dB    -9.57 dB      4:20 ?-Heavy Heart
DR6        0.00 dB    -7.09 dB      2:55 ?-Scottish Mud
DR9        0.00 dB   -11.30 dB      2:02 ?-Back In Time
DR6        0.00 dB    -7.77 dB      2:39 ?-The Gulf Of Mexico
DR8        0.00 dB    -9.43 dB      3:54 ?-Cheaters Never Change
DR6        0.00 dB    -7.36 dB      3:25 ?-Drugs And Fashion
DR6        0.00 dB    -7.01 dB      2:39 ?-Strength In Numbers
DR7        0.00 dB   -10.58 dB      3:52 ?-Don't Say I Told You So
DR6        0.00 dB    -8.44 dB      5:37 ?-It Ain't Easy
--------------------------------------------------------------------------------
Number of tracks:  12
Official DR value: DR7
Samplerate:        44100 Hz
Channels:          2
Bits per sample:   16
Bitrate:           856 kbps
Codec:             FLAC
================================================================================
Правила, инструкции, FAQ!!!
Торрент  Добавлен [26 мар 2019, 19:31] Скачать торрент Магнет ссылка
Скачать торрент
[ Размер 12.32 КБ / Просмотров 1 ]

Статус
Проверен 
 
Размер  276.36 МБ
Приватный: Нет (DHT включён)
.torrent скачан  0
 


     Отправить личное сообщение
   
Страница 1 из 1
Показать сообщения за:  Поле сортировки  
Начать новую тему Ответить на тему


Сейчас этот форум просматривают: нет зарегистрированных пользователей и гости: 0


Вы не можете начинать темы
Вы не можете отвечать на сообщения
Вы не можете редактировать свои сообщения
Вы не можете удалять свои сообщения
Вы не можете добавлять вложения

Перейти:  
cron