Начать новую тему Ответить на тему
Статистика раздачи
Размер: 720.6 МБ | Добавлен: 26 мар 2019, 20:59 | Скачали: 0
Сидеров: 0  [0 байт/сек]    Личеров: 0  [0 байт/сек]
Пред. тема | След. тема 

Автор
Сообщение

СообщениеДобавлено: 26 мар 2019, 20:59 

Ответить с цитатой 

The Hoosiers
Альбомы (2011-2014) [2 CD]



Жанр: Indie Pop, Pop Rock
Носитель: CD
Страна-производитель диска (релиза): UK
Год издания: 2011-2014
Страна исполнителя (группы): UK (London, England)
Аудиокодек: FLAC (*.flac)
Тип рипа: tracks+.cue
Битрейт аудио: lossless
Источник (релизер): Собственный рип
Наличие сканов в содержимом раздачи: да
01. Choices 2:49
02. Bumpy Ride 4:00
03. Who Said Anything (About Falling In Love)? 3:06
04. Unlikely Hero 3:50
05. Lovers In My Head 3:40
06. Live By The Ocean 4:03
07. Devil's In The Detail 3:14
08. Glorious 4:47
09. Made To Measure 4:22
10. Giddy Up 3:00
11. Sarajevo 5:45
12. Little Brutes 3:22
13. Say Hello Wave Goodbye [Bonus Track] 3:42
14. Sister Sister [Bonus Track] 3:02
15. Used To Be [Bonus Track] 3:16
16. Squeeze [Bonus Track] 5:19
Код:
Exact Audio Copy V0.99 prebeta 5 from 4. May 2009
EAC extraction logfile from 16. October 2011, 21:28
The Hoosiers / Bumpy Ride [Deluxe Edition]
Used drive  : Optiarc DVD RW AD-7240S   Adapter: 1  ID: 0
Read mode               : Secure
Utilize accurate stream : Yes
Defeat audio cache      : Yes
Make use of C2 pointers : No
Read offset correction                      : 48
Overread into Lead-In and Lead-Out          : No
Fill up missing offset samples with silence : Yes
Delete leading and trailing silent blocks   : No
Null samples used in CRC calculations       : Yes
Used interface                              : Native Win32 interface for Win NT & 2000
Gap handling                                : Appended to previous track
Used output format              : User Defined Encoder
Selected bitrate                : 768 kBit/s
Quality                         : High
Add ID3 tag                     : No
Command line compressor         : C:\Program Files\FLAC\flac.exe
Additional command line options : -8 -V -T "ARTIST=%a" -T "TITLE=%t" -T "ALBUM=%g" -T "DATE=%y" -T "TRACKNUMBER=%n" -T "GENRE=%m" -T "COMMENT=EAC -8 -V -T" %s -o %d
TOC of the extracted CD
     Track |   Start  |  Length  | Start sector | End sector
    ---------------------------------------------------------
        1  |  0:00.00 |  2:48.41 |         0    |    12640
        2  |  2:48.41 |  3:59.41 |     12641    |    30606
        3  |  6:48.07 |  3:05.39 |     30607    |    44520
        4  |  9:53.46 |  3:50.28 |     44521    |    61798
        5  | 13:43.74 |  3:39.65 |     61799    |    78288
        6  | 17:23.64 |  4:03.21 |     78289    |    96534
        7  | 21:27.10 |  3:13.42 |     96535    |   111051
        8  | 24:40.52 |  4:46.54 |    111052    |   132555
        9  | 29:27.31 |  4:21.69 |    132556    |   152199
       10  | 33:49.25 |  2:59.51 |    152200    |   165675
       11  | 36:49.01 |  5:44.66 |    165676    |   191541
       12  | 42:33.67 |  3:21.69 |    191542    |   206685
       13  | 45:55.61 |  3:42.17 |    206686    |   223352
       14  | 49:38.03 |  3:01.50 |    223353    |   236977
       15  | 52:39.53 |  3:15.43 |    236978    |   251645
       16  | 55:55.21 |  5:19.19 |    251646    |   275589
Track  1
     Filename F:\Flac\The Hoosiers\2011 Bumpy Ride [Deluxe Edition]\01 - The Hoosiers - Choices.wav
     Pre-gap length  0:00:02.00
     Peak level 99.9 %
     Track quality 100.0 %
     Test CRC C3870CE8
     Copy CRC C3870CE8
     Track not present in AccurateRip database
     Copy OK
Track  2
     Filename F:\Flac\The Hoosiers\2011 Bumpy Ride [Deluxe Edition]\02 - The Hoosiers - Bumpy Ride.wav
     Peak level 99.9 %
     Track quality 100.0 %
     Test CRC 3D24CC75
     Copy CRC 3D24CC75
     Track not present in AccurateRip database
     Copy OK
Track  3
     Filename F:\Flac\The Hoosiers\2011 Bumpy Ride [Deluxe Edition]\03 - The Hoosiers - Who Said Anything (About Falling In Love) .wav
     Peak level 99.9 %
     Track quality 99.8 %
     Test CRC 5725E257
     Copy CRC 5725E257
     Track not present in AccurateRip database
     Copy OK
Track  4
     Filename F:\Flac\The Hoosiers\2011 Bumpy Ride [Deluxe Edition]\04 - The Hoosiers - Unlikely Hero.wav
     Peak level 99.9 %
     Track quality 100.0 %
     Test CRC 61D8B82E
     Copy CRC 61D8B82E
     Track not present in AccurateRip database
     Copy OK
Track  5
     Filename F:\Flac\The Hoosiers\2011 Bumpy Ride [Deluxe Edition]\05 - The Hoosiers - Lovers In My Head.wav
     Peak level 98.6 %
     Track quality 100.0 %
     Test CRC F8D436A6
     Copy CRC F8D436A6
     Track not present in AccurateRip database
     Copy OK
Track  6
     Filename F:\Flac\The Hoosiers\2011 Bumpy Ride [Deluxe Edition]\06 - The Hoosiers - Live By The Ocean.wav
     Peak level 99.8 %
     Track quality 100.0 %
     Test CRC FC0903A1
     Copy CRC FC0903A1
     Track not present in AccurateRip database
     Copy OK
Track  7
     Filename F:\Flac\The Hoosiers\2011 Bumpy Ride [Deluxe Edition]\07 - The Hoosiers - Devil's In The Detail.wav
     Peak level 99.9 %
     Track quality 100.0 %
     Test CRC F20BF0E8
     Copy CRC F20BF0E8
     Track not present in AccurateRip database
     Copy OK
Track  8
     Filename F:\Flac\The Hoosiers\2011 Bumpy Ride [Deluxe Edition]\08 - The Hoosiers - Glorious.wav
     Peak level 99.9 %
     Track quality 100.0 %
     Test CRC 936CBF9B
     Copy CRC 936CBF9B
     Track not present in AccurateRip database
     Copy OK
Track  9
     Filename F:\Flac\The Hoosiers\2011 Bumpy Ride [Deluxe Edition]\09 - The Hoosiers - Made To Measure.wav
     Peak level 99.9 %
     Track quality 100.0 %
     Test CRC 6D3C3761
     Copy CRC 6D3C3761
     Track not present in AccurateRip database
     Copy OK
Track 10
     Filename F:\Flac\The Hoosiers\2011 Bumpy Ride [Deluxe Edition]\10 - The Hoosiers - Giddy Up.wav
     Peak level 99.9 %
     Track quality 100.0 %
     Test CRC E216BA59
     Copy CRC E216BA59
     Track not present in AccurateRip database
     Copy OK
Track 11
     Filename F:\Flac\The Hoosiers\2011 Bumpy Ride [Deluxe Edition]\11 - The Hoosiers - Sarajevo.wav
     Peak level 99.9 %
     Track quality 99.9 %
     Test CRC 5393F79C
     Copy CRC 5393F79C
     Track not present in AccurateRip database
     Copy OK
Track 12
     Filename F:\Flac\The Hoosiers\2011 Bumpy Ride [Deluxe Edition]\12 - The Hoosiers - Little Brutes.wav
     Peak level 99.2 %
     Track quality 100.0 %
     Test CRC 1BF0471D
     Copy CRC 1BF0471D
     Track not present in AccurateRip database
     Copy OK
Track 13
     Filename F:\Flac\The Hoosiers\2011 Bumpy Ride [Deluxe Edition]\13 - The Hoosiers - Say Hello Wave Goodbye [Bonus Track].wav
     Peak level 99.9 %
     Track quality 100.0 %
     Test CRC 143D1508
     Copy CRC 143D1508
     Track not present in AccurateRip database
     Copy OK
Track 14
     Filename F:\Flac\The Hoosiers\2011 Bumpy Ride [Deluxe Edition]\14 - The Hoosiers - Sister Sister [Bonus Track].wav
     Peak level 100.0 %
     Track quality 99.8 %
     Test CRC 5F4441A8
     Copy CRC 5F4441A8
     Track not present in AccurateRip database
     Copy OK
Track 15
     Filename F:\Flac\The Hoosiers\2011 Bumpy Ride [Deluxe Edition]\15 - The Hoosiers - Used To Be [Bonus Track].wav
     Peak level 87.4 %
     Track quality 100.0 %
     Test CRC CB898865
     Copy CRC CB898865
     Track not present in AccurateRip database
     Copy OK
Track 16
     Filename F:\Flac\The Hoosiers\2011 Bumpy Ride [Deluxe Edition]\16 - The Hoosiers - Squeeze [Bonus Track].wav
     Peak level 99.8 %
     Track quality 100.0 %
     Test CRC 3CDBAFF2
     Copy CRC 3CDBAFF2
     Track not present in AccurateRip database
     Copy OK
None of the tracks are present in the AccurateRip database
No errors occurred
End of status report
Код:
REM GENRE Indie
REM DATE 2011
REM DISCID D70E5A10
REM COMMENT "ExactAudioCopy v0.99pb5"
PERFORMER "The Hoosiers"
TITLE "Bumpy Ride [Deluxe Edition]"
FILE "01 - The Hoosiers - Choices.flac" WAVE
  TRACK 01 AUDIO
    TITLE "Choices"
    PERFORMER "The Hoosiers"
    ISRC GBARL1000713
    INDEX 01 00:00:00
FILE "02 - The Hoosiers - Bumpy Ride.flac" WAVE
  TRACK 02 AUDIO
    TITLE "Bumpy Ride"
    PERFORMER "The Hoosiers"
    ISRC GBARL1000743
    INDEX 01 00:00:00
FILE "03 - The Hoosiers - Who Said Anything (About Falling In Love) .flac" WAVE
  TRACK 03 AUDIO
    TITLE "Who Said Anything (About Falling In Love)?"
    PERFORMER "The Hoosiers"
    ISRC GBARL1000744
    INDEX 01 00:00:00
FILE "04 - The Hoosiers - Unlikely Hero.flac" WAVE
  TRACK 04 AUDIO
    TITLE "Unlikely Hero"
    PERFORMER "The Hoosiers"
    ISRC GBARL1000745
    INDEX 01 00:00:00
FILE "05 - The Hoosiers - Lovers In My Head.flac" WAVE
  TRACK 05 AUDIO
    TITLE "Lovers In My Head"
    PERFORMER "The Hoosiers"
    ISRC GBARL1000746
    INDEX 01 00:00:00
FILE "06 - The Hoosiers - Live By The Ocean.flac" WAVE
  TRACK 06 AUDIO
    TITLE "Live By The Ocean"
    PERFORMER "The Hoosiers"
    ISRC GBARL1000747
    INDEX 01 00:00:00
FILE "07 - The Hoosiers - Devil's In The Detail.flac" WAVE
  TRACK 07 AUDIO
    TITLE "Devil's In The Detail"
    PERFORMER "The Hoosiers"
    ISRC GBARL1000748
    INDEX 01 00:00:00
FILE "08 - The Hoosiers - Glorious.flac" WAVE
  TRACK 08 AUDIO
    TITLE "Glorious"
    PERFORMER "The Hoosiers"
    ISRC GBARL1000749
    INDEX 01 00:00:00
FILE "09 - The Hoosiers - Made To Measure.flac" WAVE
  TRACK 09 AUDIO
    TITLE "Made To Measure"
    PERFORMER "The Hoosiers"
    ISRC GBARL1000750
    INDEX 01 00:00:00
FILE "10 - The Hoosiers - Giddy Up.flac" WAVE
  TRACK 10 AUDIO
    TITLE "Giddy Up"
    PERFORMER "The Hoosiers"
    ISRC GBARL1000751
    INDEX 01 00:00:00
FILE "11 - The Hoosiers - Sarajevo.flac" WAVE
  TRACK 11 AUDIO
    TITLE "Sarajevo"
    PERFORMER "The Hoosiers"
    ISRC GBARL1000752
    INDEX 01 00:00:00
FILE "12 - The Hoosiers - Little Brutes.flac" WAVE
  TRACK 12 AUDIO
    TITLE "Little Brutes"
    PERFORMER "The Hoosiers"
    ISRC GBARL1000753
    INDEX 01 00:00:00
FILE "13 - The Hoosiers - Say Hello Wave Goodbye [Bonus Track].flac" WAVE
  TRACK 13 AUDIO
    TITLE "Say Hello Wave Goodbye [Bonus Track]"
    PERFORMER "The Hoosiers"
    ISRC GBW2E1100006
    INDEX 01 00:00:00
FILE "14 - The Hoosiers - Sister Sister [Bonus Track].flac" WAVE
  TRACK 14 AUDIO
    TITLE "Sister Sister [Bonus Track]"
    PERFORMER "The Hoosiers"
    ISRC GBW2E1100007
    INDEX 01 00:00:00
FILE "15 - The Hoosiers - Used To Be [Bonus Track].flac" WAVE
  TRACK 15 AUDIO
    TITLE "Used To Be [Bonus Track]"
    PERFORMER "The Hoosiers"
    ISRC GBW2E1100008
    INDEX 01 00:00:00
FILE "16 - The Hoosiers - Squeeze [Bonus Track].flac" WAVE
  TRACK 16 AUDIO
    TITLE "Squeeze [Bonus Track]"
    PERFORMER "The Hoosiers"
    ISRC GBW2E1100009
    INDEX 01 00:00:00
Код:
-----------------------
DON'T MODIFY THIS FILE
-----------------------
PERFORMER: auCDtect Task Manager, ver. 1.6.0 RC1 build 1.6.0.1
Copyright (c) 2008-2010 y-soft. All rights reserved
[url=http://y-soft.org]http://y-soft.org[/url]
ANALYZER: auCDtect: CD records authenticity detector, version 0.8.2
Copyright (c) 2004 Oleg Berngardt. All rights reserved.
Copyright (c) 2004 Alexander Djourik. All rights reserved.
FILE: 16 - The Hoosiers - Squeeze [Bonus Track].flac
  Size: 40814066 Hash: BF3F7090A14D2A5E1C789C54A5721481 Accuracy: -m0
  Conclusion: CDDA 100%
  Signature: BF95483DBB09323C73D695D82B592F4D06ED06BE
FILE: 15 - The Hoosiers - Used To Be [Bonus Track].flac
  Size: 23695938 Hash: CA8696DCAAA192EE1D6DB7BA8DEE602C Accuracy: -m0
  Conclusion: CDDA 100%
  Signature: 3B1AB9C5D1C4A86C958815D9CFA764E423AC8B21
FILE: 14 - The Hoosiers - Sister Sister [Bonus Track].flac
  Size: 23333420 Hash: 1DD47705FD63F91EF221DBCCA5F09F92 Accuracy: -m0
  Conclusion: CDDA 100%
  Signature: 89008020562F3DEB31FCCB57FBC8E5D5C226C942
FILE: 13 - The Hoosiers - Say Hello Wave Goodbye [Bonus Track].flac
  Size: 29874249 Hash: B48B259EE598F74D5126C9D216249DEF Accuracy: -m0
  Conclusion: CDDA 99%
  Signature: 8A8450B2AE9FA4EB4C029AE2F433F6CE1D8F9986
FILE: 12 - The Hoosiers - Little Brutes.flac
  Size: 21207324 Hash: E5039A8AB6D2701AC4C7A504830CDDB3 Accuracy: -m0
  Conclusion: CDDA 92%
  Signature: C2566D8A68DC0231E89ACBFB6749922EB9191B5A
FILE: 11 - The Hoosiers - Sarajevo.flac
  Size: 40339073 Hash: E334988D83C311B234A9D39E43F4DBEC Accuracy: -m0
  Conclusion: CDDA 100%
  Signature: DD6B9767F6C509CD383F5F937496A60B82810194
FILE: 10 - The Hoosiers - Giddy Up.flac
  Size: 24952892 Hash: BDFD4DC4B7132BBA2B0E2AD1FBF9F275 Accuracy: -m0
  Conclusion: CDDA 99%
  Signature: 1FD81E030D0474663C3C1A2D84D6EA00C975D877
FILE: 09 - The Hoosiers - Made To Measure.flac
  Size: 35862684 Hash: 5564927BB1EBF424E1244C69D32D99ED Accuracy: -m0
  Conclusion: CDDA 100%
  Signature: C4177914219CD4F2A8150987746E05A9522FB000
FILE: 08 - The Hoosiers - Glorious.flac
  Size: 38362566 Hash: ABA9C6C052039FB71560938B817DAC42 Accuracy: -m0
  Conclusion: CDDA 100%
  Signature: 8A2941BA519BDD76A7BB0A2F60EFB657BBD14DC9
FILE: 07 - The Hoosiers - Devil's In The Detail.flac
  Size: 19149172 Hash: 5CCFE0A0A2678CF14C47594C7549E65A Accuracy: -m0
  Conclusion: CDDA 99%
  Signature: A69CE58E5F119276596FD26EEBE175FE739BB67A
FILE: 06 - The Hoosiers - Live By The Ocean.flac
  Size: 31965311 Hash: 57A722ECE43441F5C4A1D21BBBB50A44 Accuracy: -m0
  Conclusion: CDDA 99%
  Signature: BD1AA05F821D0D9A1D06FB0EFB99013CA386F3DA
FILE: 05 - The Hoosiers - Lovers In My Head.flac
  Size: 27651947 Hash: 825AEA3FCAAE7D98CD81181A55DF6FC2 Accuracy: -m0
  Conclusion: CDDA 99%
  Signature: A6759B03C6E1B1CD5DCC90A42DC9E500943E643E
FILE: 04 - The Hoosiers - Unlikely Hero.flac
  Size: 31717962 Hash: BDA6EE50346C5DFC10136C4F2411FCF3 Accuracy: -m0
  Conclusion: CDDA 100%
  Signature: 38464FF4008E2BB9B4BFC4ED382939BE708F1542
FILE: 03 - The Hoosiers - Who Said Anything (About Falling In Love) .flac
  Size: 24209523 Hash: B631B895F8FEB216DB01489DF27362CC Accuracy: -m0
  Conclusion: CDDA 100%
  Signature: 6FB6E0E64155FBB47C8569AAFFA6703FE14A8B6E
FILE: 02 - The Hoosiers - Bumpy Ride.flac
  Size: 31776439 Hash: B7503C76F4442760612057F0A0869F80 Accuracy: -m0
  Conclusion: CDDA 100%
  Signature: 81B6598CA2AB3D302A8803667007BFD37FCE2E88
FILE: 01 - The Hoosiers - Choices.flac
  Size: 22522920 Hash: F3BCE4D8CE471262C4870DD84B28A98A Accuracy: -m0
  Conclusion: CDDA 100%
  Signature: 6335177602B3D74CA9B29B97E4D20BDF0987FF95
Делюксовое периздание альбома The Illusion Of Safety с четырьмя бонус-треками и DVD.
http://www.discogs.com/Hoosiers-Bumpy-Ride/release/6553032
#77701. Somewhere In The Distance 3:47
02. Make Or Break (You Gotta Know) 3:32
03. My Last Fight 3:11
04. Fidget Brain 3:00
05. Handsome Girls And Pretty Boys 5:01
06. The News From Nowhere 3:21
07. Rocket Star 4:25
08. To The Lions 3:26
09. Upset 3:27
10. Weirdo 4:49
11. Impossible Boy 6:52
Код:
Exact Audio Copy V1.0 beta 4 from 7. December 2014
EAC extraction logfile from 18. January 2015, 14:41
The Hoosiers / The News From Nowhere
Used drive  : Optiarc DVD RW AD-5260S   Adapter: 0  ID: 0
Read mode               : Secure
Utilize accurate stream : Yes
Defeat audio cache      : Yes
Make use of C2 pointers : No
Read offset correction                      : 48
Overread into Lead-In and Lead-Out          : No
Fill up missing offset samples with silence : Yes
Delete leading and trailing silent blocks   : No
Null samples used in CRC calculations       : Yes
Used interface                              : Installed external ASPI interface
Gap handling                                : Appended to previous track
Used output format              : User Defined Encoder
Selected bitrate                : 896 kBit/s
Quality                         : High
Add ID3 tag                     : No
Command line compressor         : D:\Temp\EAC 1.0 beta 3\App\EAC\FLAC\flac.exe
Additional command line options : -6 -V -T "ARTIST=%artist%" -T "TITLE=%title%" -T "ALBUM=%albumtitle%" -T "DATE=%year%" -T "TRACKNUMBER=%tracknr%" -T "GENRE=%genre%" -T "COMMENT=%comment%" %hascover%--picture="%coverfile%"%hascover% %source% -o %dest%
TOC of the extracted CD
     Track |   Start  |  Length  | Start sector | End sector
    ---------------------------------------------------------
        1  |  0:00.00 |  3:47.27 |         0    |    17051
        2  |  3:47.27 |  3:31.68 |     17052    |    32944
        3  |  7:19.20 |  3:10.62 |     32945    |    47256
        4  | 10:30.07 |  3:00.23 |     47257    |    60779
        5  | 13:30.30 |  5:00.66 |     60780    |    83345
        6  | 18:31.21 |  3:21.16 |     83346    |    98436
        7  | 21:52.37 |  4:25.20 |     98437    |   118331
        8  | 26:17.57 |  3:26.01 |    118332    |   133782
        9  | 29:43.58 |  3:26.68 |    133783    |   149300
       10  | 33:10.51 |  4:49.20 |    149301    |   170995
       11  | 37:59.71 |  6:51.40 |    170996    |   201860
Track  1
     Filename G:\00-My CD\The Hoosiers\2014 The News From Nowhere\01 - The Hoosiers - Somewhere In The Distance.wav
     Pre-gap length  0:00:02.00
     Peak level 98.5 %
     Extraction speed 2.2 X
     Track quality 100.0 %
     Test CRC 6B4FABAF
     Copy CRC 6B4FABAF
     Accurately ripped (confidence 3)  [C61CF987]  (AR v2)
     Copy OK
Track  2
     Filename G:\00-My CD\The Hoosiers\2014 The News From Nowhere\02 - The Hoosiers - Make Or Break (You Gotta Know).wav
     Peak level 98.6 %
     Extraction speed 2.5 X
     Track quality 100.0 %
     Test CRC 88EBAC7D
     Copy CRC 88EBAC7D
     Accurately ripped (confidence 3)  [503349CB]  (AR v2)
     Copy OK
Track  3
     Filename G:\00-My CD\The Hoosiers\2014 The News From Nowhere\03 - The Hoosiers - My Last Fight.wav
     Pre-gap length  0:00:01.50
     Peak level 98.2 %
     Extraction speed 2.6 X
     Track quality 100.0 %
     Test CRC 416DEFB1
     Copy CRC 416DEFB1
     Accurately ripped (confidence 3)  [25D218A5]  (AR v2)
     Copy OK
Track  4
     Filename G:\00-My CD\The Hoosiers\2014 The News From Nowhere\04 - The Hoosiers - Fidget Brain.wav
     Peak level 98.7 %
     Extraction speed 2.8 X
     Track quality 100.0 %
     Test CRC 6262E209
     Copy CRC 6262E209
     Accurately ripped (confidence 3)  [B59702D5]  (AR v2)
     Copy OK
Track  5
     Filename G:\00-My CD\The Hoosiers\2014 The News From Nowhere\05 - The Hoosiers - Handsome Girls And Pretty Boys.wav
     Peak level 98.5 %
     Extraction speed 3.2 X
     Track quality 100.0 %
     Test CRC 67ED396B
     Copy CRC 67ED396B
     Accurately ripped (confidence 3)  [9D4814C2]  (AR v2)
     Copy OK
Track  6
     Filename G:\00-My CD\The Hoosiers\2014 The News From Nowhere\06 - The Hoosiers - The News From Nowhere.wav
     Peak level 97.7 %
     Extraction speed 3.2 X
     Track quality 100.0 %
     Test CRC 3FF681AA
     Copy CRC 3FF681AA
     Accurately ripped (confidence 3)  [3C0BAA38]  (AR v2)
     Copy OK
Track  7
     Filename G:\00-My CD\The Hoosiers\2014 The News From Nowhere\07 - The Hoosiers - Rocket Star.wav
     Peak level 98.4 %
     Extraction speed 3.2 X
     Track quality 99.9 %
     Test CRC C84114B9
     Copy CRC C84114B9
     Accurately ripped (confidence 3)  [64185C3A]  (AR v2)
     Copy OK
Track  8
     Filename G:\00-My CD\The Hoosiers\2014 The News From Nowhere\08 - The Hoosiers - To The Lions.wav
     Peak level 99.9 %
     Extraction speed 3.7 X
     Track quality 100.0 %
     Test CRC A824BC49
     Copy CRC A824BC49
     Accurately ripped (confidence 3)  [04392F14]  (AR v2)
     Copy OK
Track  9
     Filename G:\00-My CD\The Hoosiers\2014 The News From Nowhere\09 - The Hoosiers - Upset.wav
     Peak level 98.5 %
     Extraction speed 3.8 X
     Track quality 100.0 %
     Test CRC D4BD53A0
     Copy CRC D4BD53A0
     Accurately ripped (confidence 3)  [E8F18A7E]  (AR v2)
     Copy OK
Track 10
     Filename G:\00-My CD\The Hoosiers\2014 The News From Nowhere\10 - The Hoosiers - Weirdo.wav
     Pre-gap length  0:00:04.00
     Peak level 98.2 %
     Extraction speed 4.1 X
     Track quality 100.0 %
     Test CRC A2037A13
     Copy CRC A2037A13
     Accurately ripped (confidence 3)  [D97542CA]  (AR v2)
     Copy OK
Track 11
     Filename G:\00-My CD\The Hoosiers\2014 The News From Nowhere\11 - The Hoosiers - Impossible Boy.wav
     Pre-gap length  0:00:03.32
     Peak level 98.1 %
     Extraction speed 4.5 X
     Track quality 100.0 %
     Test CRC F3CAEBAD
     Copy CRC F3CAEBAD
     Accurately ripped (confidence 3)  [32DF9D74]  (AR v2)
     Copy OK
All tracks accurately ripped
No errors occurred
End of status report
==== Log checksum 257137CC3664EBE81671CDC55FDD20A918AC34EFB256A96AB9A2F4A519C6F281 ====
Код:
REM GENRE Indie
REM DATE 2014
REM DISCID 8A0A830B
REM COMMENT "ExactAudioCopy v1.0b4"
PERFORMER "The Hoosiers"
TITLE "The News From Nowhere  "
FILE "01 - The Hoosiers - Somewhere In The Distance.flac" WAVE
  TRACK 01 AUDIO
    TITLE "Somewhere In The Distance"
    PERFORMER "The Hoosiers"
    INDEX 01 00:00:00
FILE "02 - The Hoosiers - Make Or Break (You Gotta Know).flac" WAVE
  TRACK 02 AUDIO
    TITLE "Make Or Break (You Gotta Know)"
    PERFORMER "The Hoosiers"
    INDEX 01 00:00:00
  TRACK 03 AUDIO
    TITLE "My Last Fight"
    PERFORMER "The Hoosiers"
    INDEX 00 03:30:18
FILE "03 - The Hoosiers - My Last Fight.flac" WAVE
    INDEX 01 00:00:00
FILE "04 - The Hoosiers - Fidget Brain.flac" WAVE
  TRACK 04 AUDIO
    TITLE "Fidget Brain"
    PERFORMER "The Hoosiers"
    INDEX 01 00:00:00
FILE "05 - The Hoosiers - Handsome Girls And Pretty Boys.flac" WAVE
  TRACK 05 AUDIO
    TITLE "Handsome Girls And Pretty Boys"
    PERFORMER "The Hoosiers"
    INDEX 01 00:00:00
FILE "06 - The Hoosiers - The News From Nowhere.flac" WAVE
  TRACK 06 AUDIO
    TITLE "The News From Nowhere"
    PERFORMER "The Hoosiers"
    INDEX 01 00:00:00
FILE "07 - The Hoosiers - Rocket Star.flac" WAVE
  TRACK 07 AUDIO
    TITLE "Rocket Star"
    PERFORMER "The Hoosiers"
    INDEX 01 00:00:00
FILE "08 - The Hoosiers - To The Lions.flac" WAVE
  TRACK 08 AUDIO
    TITLE "To The Lions"
    PERFORMER "The Hoosiers"
    INDEX 01 00:00:00
FILE "09 - The Hoosiers - Upset.flac" WAVE
  TRACK 09 AUDIO
    TITLE "Upset"
    PERFORMER "The Hoosiers"
    INDEX 01 00:00:00
  TRACK 10 AUDIO
    TITLE "Weirdo"
    PERFORMER "The Hoosiers"
    INDEX 00 03:22:68
FILE "10 - The Hoosiers - Weirdo.flac" WAVE
    INDEX 01 00:00:00
  TRACK 11 AUDIO
    TITLE "Impossible Boy"
    PERFORMER "The Hoosiers"
    INDEX 00 04:45:63
FILE "11 - The Hoosiers - Impossible Boy.flac" WAVE
    INDEX 01 00:00:00
Код:
-----------------------
DON'T MODIFY THIS FILE
-----------------------
PERFORMER: auCDtect Task Manager, ver. 1.6.0 RC1 build 1.6.0.1
Copyright (c) 2008-2010 y-soft. All rights reserved
[url=http://y-soft.org]http://y-soft.org[/url]
ANALYZER: auCDtect: CD records authenticity detector, version 0.8.2
Copyright (c) 2004 Oleg Berngardt. All rights reserved.
Copyright (c) 2004 Alexander Djourik. All rights reserved.
FILE: 11 - The Hoosiers - Impossible Boy.flac
  Size: 33527240 Hash: 782FAE89CA87CA74BC7C0E62E1E33C15 Accuracy: -m0
  Conclusion: CDDA 100%
  Signature: 049CB70E0994BD0A0B0159B93C1BBFD978F9F955
FILE: 10 - The Hoosiers - Weirdo.flac
  Size: 26063912 Hash: 997A751CFCAEE8E24C57DDE9446A26C1 Accuracy: -m0
  Conclusion: CDDA 100%
  Signature: 509A92C1F3D7988A9DDE04E8FBD467539A3EDB42
FILE: 09 - The Hoosiers - Upset.flac
  Size: 24018603 Hash: 4BF0FEF272CF49312B1E6DF73F8E1257 Accuracy: -m0
  Conclusion: CDDA 100%
  Signature: DC0A0D4F8FC6031E3517A3C5D1526B15BF6E96C1
FILE: 08 - The Hoosiers - To The Lions.flac
  Size: 23535441 Hash: 80D38A3E9ED9E0207A8A62DF8FEB6FAB Accuracy: -m0
  Conclusion: CDDA 100%
  Signature: 33C721D9F4972B215C87FF4E7D906AE5E5E5B473
FILE: 07 - The Hoosiers - Rocket Star.flac
  Size: 30582269 Hash: 587EDD709BA9E81EC1C09B3D83B05D9C Accuracy: -m0
  Conclusion: CDDA 100%
  Signature: 1F990DECF55E463A0B73E83464FFF048CD1E480E
FILE: 06 - The Hoosiers - The News From Nowhere.flac
  Size: 17847464 Hash: 907AE2E0E3FDB19C7F66ECAC9E5DF7B9 Accuracy: -m0
  Conclusion: CDDA 100%
  Signature: DAB83F6FF37E7AA3BFC3DC953D3390C226F2E888
FILE: 05 - The Hoosiers - Handsome Girls And Pretty Boys.flac
  Size: 36049889 Hash: 262590C81ECE3AABCB2AEF469F67C546 Accuracy: -m0
  Conclusion: CDDA 100%
  Signature: B65C921FAC3A9136D4E7D6AE25810AE942891DA7
FILE: 04 - The Hoosiers - Fidget Brain.flac
  Size: 21500030 Hash: AE143CFEE01483802F7D2BE561425704 Accuracy: -m0
  Conclusion: CDDA 100%
  Signature: A79667EFC9A30F9773C8C2EBD92EBAEC3B0ACC9E
FILE: 03 - The Hoosiers - My Last Fight.flac
  Size: 20137645 Hash: 56E1092363FD052D5F7D513C47508752 Accuracy: -m0
  Conclusion: CDDA 100%
  Signature: 338730BC2067495744C56924945A9DDF0DC53998
FILE: 02 - The Hoosiers - Make Or Break (You Gotta Know).flac
  Size: 22610257 Hash: 1D92C82DCFA9322085231220ED7B1EF5 Accuracy: -m0
  Conclusion: CDDA 100%
  Signature: F890CEDBBE65B2205AA24AFA08A88E2633622DC1
FILE: 01 - The Hoosiers - Somewhere In The Distance.flac
  Size: 26964782 Hash: 35795DCE1BE34255A73C820B96541606 Accuracy: -m0
  Conclusion: CDDA 100%
  Signature: 91679F721128A7E62A34D52FD21B8D44B379E62C
Irwin Sparkes - lead vocals, lead guitar
Martin Skarendahl - bass guitar, rhythm guitar
Alan Sharland - drums
Sam Swallow - keyboard, backing vocals

Материал представлен исключительно в ознакомительных целях! Не забудьте удалить его со своего жесткого диска и иных носителей сразу после
прослушивания!
These materials are presented for informational purposes only! Do not forget delete it from your hard drive or other media devices after listening.
Правила, инструкции, FAQ!!!
Торрент  Добавлен [26 мар 2019, 20:59] Скачать торрент Магнет ссылка
Скачать торрент
[ Размер 18.87 КБ / Просмотров 0 ]

Статус
Проверен 
 
Размер  720.6 МБ
Приватный: Нет (DHT включён)
.torrent скачан  0
 


     Отправить личное сообщение
   
Страница 1 из 1
Показать сообщения за:  Поле сортировки  
Начать новую тему Ответить на тему


Сейчас этот форум просматривают: нет зарегистрированных пользователей и гости: 0


Вы не можете начинать темы
Вы не можете отвечать на сообщения
Вы не можете редактировать свои сообщения
Вы не можете удалять свои сообщения
Вы не можете добавлять вложения

Перейти:  
cron