Начать новую тему Ответить на тему
Статистика раздачи
Размер: 314.44 МБ | Добавлен: 26 мар 2019, 20:58 | Скачали: 0
Сидеров: 0  [0 байт/сек]    Личеров: 0  [0 байт/сек]
Пред. тема | След. тема 

Автор
Сообщение

СообщениеДобавлено: 26 мар 2019, 20:58 

Ответить с цитатой 

Anna F. / King In The Mirror
Жанр: Indie Pop, Pop-Rock
Носитель: CD
Год издания: 2014
Издатель (лейбл): Polydor/Island
Номер по каталогу: 3754422
Аудиокодек: FLAC (*.flac)
Тип рипа: tracks+.cue
Битрейт аудио: lossless
Продолжительность: 39:49
Источник (релизер): обмен
Наличие сканов в содержимом раздачи: да
Треклист:
1. Anna F. - Friedberg [4:21]
2. Anna F. - Too Far [4:00]
3. Anna F. - DNA Original Version [3:20]
4. Anna F. - Underdog [3:19]
5. Anna F. - We Could Be Something [3:30]
6. Anna F. - Tongue Tied [4:28]
7. Anna F. - Unbelievable [3:06]
8. Anna F. - Lost in Perfection [3:22]
9. Anna F. - Fools [3:12]
10. Anna F. - Good Girl [3:46]
11. Anna F. - King In The Mirror [3:20]
Код:
X Lossless Decoder version 20141129a (148.2)
XLD extraction logfile from 2015-11-06 17:44:21 +0100
Anna F. / King in the Mirror
Used drive : HL-DT-ST DVDRW  GX40N (revision RQ00)
Media type : Pressed CD
Ripper mode             : XLD Secure Ripper
Disable audio cache     : OK for the drive with a cache less than 1375KiB
Make use of C2 pointers : NO
Read offset correction  : 6
Max retry count         : 100
Gap status              : Analyzed, Appended (except HTOA)
TOC of the extracted CD
     Track |   Start  |  Length  | Start sector | End sector
    ---------------------------------------------------------
        1  | 00:00:00 | 04:20:64 |         0    |    19563
        2  | 04:20:64 | 03:59:38 |     19564    |    37526
        3  | 08:20:27 | 03:20:12 |     37527    |    52538
        4  | 11:40:39 | 03:18:58 |     52539    |    67446
        5  | 14:59:22 | 03:30:00 |     67447    |    83196
        6  | 18:29:22 | 04:28:01 |     83197    |   103297
        7  | 22:57:23 | 03:05:63 |    103298    |   117235
        8  | 26:03:11 | 03:21:45 |    117236    |   132355
        9  | 29:24:56 | 03:11:48 |    132356    |   146728
       10  | 32:36:29 | 03:45:65 |    146729    |   163668
       11  | 36:22:19 | 03:20:28 |    163669    |   178696
AccurateRip Summary (DiscID: 0010d1b3-009062ca-89094e0b)
    Track 01 : OK (v2, confidence 13/13)
    Track 02 : OK (v2, confidence 13/13)
    Track 03 : OK (v2, confidence 13/13)
    Track 04 : OK (v2, confidence 13/13)
    Track 05 : OK (v2, confidence 13/13)
    Track 06 : OK (v2, confidence 13/13)
    Track 07 : OK (v2, confidence 13/13)
    Track 08 : OK (v2, confidence 13/13)
    Track 09 : OK (v2, confidence 13/13)
    Track 10 : OK (v2, confidence 13/13)
    Track 11 : OK (v2, confidence 13/13)
        ->All tracks accurately ripped.
All Tracks
    Album gain               : -9.76 dB
    Peak                     : 0.998840
    Statistics
        Read error                           : 0
        Jitter error (maybe fixed)           : 0
        Retry sector count                   : 0
        Damaged sector count                 : 0
Track 01
    Filename : /Users/XLD/01 - Friedberg.flac
    Pre-gap length : 00:02:00
    Track gain               : -8.54 dB
    Peak                     : 0.838898
    CRC32 hash (test run)    : C3411CD4
    CRC32 hash               : C3411CD4
    CRC32 hash (skip zero)   : E391BD5B
    AccurateRip v1 signature : 4D04648F
    AccurateRip v2 signature : D11EABDE
        ->Accurately ripped (v2, confidence 13/13)
    Statistics
        Read error                           : 0
        Jitter error (maybe fixed)           : 0
        Retry sector count                   : 0
        Damaged sector count                 : 0
Track 02
    Filename : /Users/XLD/02 - Too Far.flac
    Track gain               : -9.88 dB
    Peak                     : 0.982635
    CRC32 hash (test run)    : 8CAFBDC2
    CRC32 hash               : 8CAFBDC2
    CRC32 hash (skip zero)   : 382F6419
    AccurateRip v1 signature : 2565E8E8
    AccurateRip v2 signature : 2327B04F
        ->Accurately ripped (v2, confidence 13/13)
    Statistics
        Read error                           : 0
        Jitter error (maybe fixed)           : 0
        Retry sector count                   : 0
        Damaged sector count                 : 0
Track 03
    Filename : /Users/XLD/03 - DNA Original Version.flac
    Track gain               : -9.12 dB
    Peak                     : 0.998840
    CRC32 hash (test run)    : 916C84F5
    CRC32 hash               : 916C84F5
    CRC32 hash (skip zero)   : 9BCDD394
    AccurateRip v1 signature : AE7661EE
    AccurateRip v2 signature : 2DF88C6A
        ->Accurately ripped (v2, confidence 13/13)
    Statistics
        Read error                           : 0
        Jitter error (maybe fixed)           : 0
        Retry sector count                   : 0
        Damaged sector count                 : 0
Track 04
    Filename : /Users/XLD/04 - Underdog.flac
    Track gain               : -10.17 dB
    Peak                     : 0.998840
    CRC32 hash (test run)    : 968696B7
    CRC32 hash               : 968696B7
    CRC32 hash (skip zero)   : EAF6926F
    AccurateRip v1 signature : A64EC030
    AccurateRip v2 signature : EDEA9D7D
        ->Accurately ripped (v2, confidence 13/13)
    Statistics
        Read error                           : 0
        Jitter error (maybe fixed)           : 0
        Retry sector count                   : 0
        Damaged sector count                 : 0
Track 05
    Filename : /Users/XLD/05 - We Could Be Something.flac
    Pre-gap length : 00:00:67
    Track gain               : -11.50 dB
    Peak                     : 0.998840
    CRC32 hash (test run)    : 0E86BAF2
    CRC32 hash               : 0E86BAF2
    CRC32 hash (skip zero)   : D0D7C779
    AccurateRip v1 signature : A681E5CA
    AccurateRip v2 signature : 37D584C0
        ->Accurately ripped (v2, confidence 13/13)
    Statistics
        Read error                           : 0
        Jitter error (maybe fixed)           : 0
        Retry sector count                   : 0
        Damaged sector count                 : 0
Track 06
    Filename : /Users/XLD/06 - Tongue Tied.flac
    Pre-gap length : 00:00:42
    Track gain               : -7.47 dB
    Peak                     : 0.998840
    CRC32 hash (test run)    : 6699A938
    CRC32 hash               : 6699A938
    CRC32 hash (skip zero)   : 1FFD1B67
    AccurateRip v1 signature : EE5ACDBB
    AccurateRip v2 signature : 6E3664AB
        ->Accurately ripped (v2, confidence 13/13)
    Statistics
        Read error                           : 0
        Jitter error (maybe fixed)           : 0
        Retry sector count                   : 0
        Damaged sector count                 : 0
Track 07
    Filename : /Users/XLD/07 - Unbelievable.flac
    Track gain               : -9.86 dB
    Peak                     : 0.998840
    CRC32 hash (test run)    : 189D391E
    CRC32 hash               : 189D391E
    CRC32 hash (skip zero)   : 8751811D
    AccurateRip v1 signature : A9359671
    AccurateRip v2 signature : A4B31215
        ->Accurately ripped (v2, confidence 13/13)
    Statistics
        Read error                           : 0
        Jitter error (maybe fixed)           : 0
        Retry sector count                   : 0
        Damaged sector count                 : 0
Track 08
    Filename : /Users/XLD/08 - Lost in Perfection.flac
    Track gain               : -9.13 dB
    Peak                     : 0.998840
    CRC32 hash (test run)    : 8605CF85
    CRC32 hash               : 8605CF85
    CRC32 hash (skip zero)   : AE990417
    AccurateRip v1 signature : 8CE02946
    AccurateRip v2 signature : 1FC79E7D
        ->Accurately ripped (v2, confidence 13/13)
    Statistics
        Read error                           : 0
        Jitter error (maybe fixed)           : 0
        Retry sector count                   : 0
        Damaged sector count                 : 0
Track 09
    Filename : /Users/XLD/09 - Fools.flac
    Track gain               : -9.45 dB
    Peak                     : 0.998840
    CRC32 hash (test run)    : 966B9405
    CRC32 hash               : 966B9405
    CRC32 hash (skip zero)   : 2BA07152
    AccurateRip v1 signature : 00E3FEBA
    AccurateRip v2 signature : BC77C630
        ->Accurately ripped (v2, confidence 13/13)
    Statistics
        Read error                           : 0
        Jitter error (maybe fixed)           : 0
        Retry sector count                   : 0
        Damaged sector count                 : 0
Track 10
    Filename : /Users/XLD/10 - Good Girl.flac
    Track gain               : -9.90 dB
    Peak                     : 0.998840
    CRC32 hash (test run)    : 73C6A01A
    CRC32 hash               : 73C6A01A
    CRC32 hash (skip zero)   : 9B0B9926
    AccurateRip v1 signature : FADDEEF1
    AccurateRip v2 signature : 68EF3BD4
        ->Accurately ripped (v2, confidence 13/13)
    Statistics
        Read error                           : 0
        Jitter error (maybe fixed)           : 0
        Retry sector count                   : 0
        Damaged sector count                 : 0
Track 11
    Filename : /Users/XLD/11 - King In The Mirror.flac
    Pre-gap length : 00:03:19
    Track gain               : -7.27 dB
    Peak                     : 0.998840
    CRC32 hash (test run)    : 850B968A
    CRC32 hash               : 850B968A
    CRC32 hash (skip zero)   : F76B96A6
    AccurateRip v1 signature : 321ACB59
    AccurateRip v2 signature : B2027177
        ->Accurately ripped (v2, confidence 13/13)
    Statistics
        Read error                           : 0
        Jitter error (maybe fixed)           : 0
        Retry sector count                   : 0
        Damaged sector count                 : 0
No errors occurred
End of status report
-----BEGIN XLD SIGNATURE-----
zs7csHBGSb1PAzJ8CgJYF6..H5pPfUrMIGL2HmCPMeSK.AfzUR_EWS3eYowmdiv323v98Tw_4Y8PMBRQI3W56dzCeDryFogOUk_O9BS
-----END XLD SIGNATURE-----
Код:
TITLE "King in the Mirror"
PERFORMER "Anna F."
CATALOG 0602537544226
REM GENRE "Pop-Folk"
REM DATE "2014"
REM DISCID 89094E0B
FILE "01 - Friedberg.wav" WAVE
  TRACK 01 AUDIO
    TITLE "Friedberg"
    ISRC ATWD21300015
    INDEX 01 00:00:00
FILE "02 - Too Far.wav" WAVE
  TRACK 02 AUDIO
    TITLE "Too Far"
    ISRC ATWD21300016
    INDEX 01 00:00:00
FILE "03 - DNA Original Version.wav" WAVE
  TRACK 03 AUDIO
    TITLE "DNA Original Version"
    ISRC ATWD21300017
    INDEX 01 00:00:00
FILE "04 - Underdog.wav" WAVE
  TRACK 04 AUDIO
    TITLE "Underdog"
    ISRC ATWD21300019
    INDEX 01 00:00:00
  TRACK 05 AUDIO
    TITLE "We Could Be Something"
    ISRC ATWD21300020
    INDEX 00 03:17:66
FILE "05 - We Could Be Something.wav" WAVE
    INDEX 01 00:00:00
  TRACK 06 AUDIO
    TITLE "Tongue Tied"
    ISRC ATWD21300021
    INDEX 00 03:29:33
FILE "06 - Tongue Tied.wav" WAVE
    INDEX 01 00:00:00
FILE "07 - Unbelievable.wav" WAVE
  TRACK 07 AUDIO
    TITLE "Unbelievable"
    ISRC ATWD21300022
    INDEX 01 00:00:00
FILE "08 - Lost in Perfection.wav" WAVE
  TRACK 08 AUDIO
    TITLE "Lost in Perfection"
    ISRC ATWD21300023
    INDEX 01 00:00:00
FILE "09 - Fools.wav" WAVE
  TRACK 09 AUDIO
    TITLE "Fools"
    ISRC ATWD21300024
    INDEX 01 00:00:00
FILE "10 - Good Girl.wav" WAVE
  TRACK 10 AUDIO
    TITLE "Good Girl"
    ISRC ATWD21300025
    INDEX 01 00:00:00
  TRACK 11 AUDIO
    TITLE "King In The Mirror"
    ISRC ATWD21300026
    INDEX 00 03:42:46
FILE "11 - King In The Mirror.wav" WAVE
    INDEX 01 00:00:00
Правила, инструкции, FAQ!!!
Торрент  Добавлен [26 мар 2019, 20:58] Скачать торрент Магнет ссылка
Скачать торрент
[ Размер 13.97 КБ / Просмотров 2 ]

Статус
Проверен 
 
Размер  314.44 МБ
Приватный: Нет (DHT включён)
.torrent скачан  0
 


     Отправить личное сообщение
   
Страница 1 из 1
Показать сообщения за:  Поле сортировки  
Начать новую тему Ответить на тему


Сейчас этот форум просматривают: нет зарегистрированных пользователей и гости: 0


Вы не можете начинать темы
Вы не можете отвечать на сообщения
Вы не можете редактировать свои сообщения
Вы не можете удалять свои сообщения
Вы не можете добавлять вложения

Перейти:  
cron