Начать новую тему Ответить на тему
Статистика раздачи
Размер: 312.55 МБ | Добавлен: 26 мар 2019, 20:29 | Скачали: 0
Сидеров: 0  [0 байт/сек]    Личеров: 0  [0 байт/сек]
Пред. тема | След. тема 

Автор
Сообщение

СообщениеДобавлено: 26 мар 2019, 20:29 

Ответить с цитатой 

The Triffids / Calenture
Жанр: Indie Pop, Jangle Pop, Post-Punk, Pop/Rock, Baroqu
Страна-производитель диска: Australia
Год издания: 1987
Издатель (лейбл): Mushroom Records
Номер по каталогу: D 19458
Страна: Australia
Аудиокодек: FLAC (*.flac)
Тип рипа: image+.cue
Битрейт аудио: lossless
Продолжительность: 00:46:24
Источник (релизер): Рип Мой
Наличие сканов в содержимом раздачи: да
Треклист:
01. - Bury Me Deep In Love - 04:05
02. - Keely's Blues - 04:34
03. - A Trick Of The Light - 03:51
04. - Hometown Farewell Kiss - 04:34
05. - Unmade Love - 04:02
06. - Open For You - 03:07
07. - Holy Water - 03:17
08. - Blinder By The Hour - 04:25
09. - Vagabond Holes - 03:57
10. - Jerdacuttup Man - 04:42
11. - Calenture - 01:13
12. - Save What You Can - 04:32
Код:
Exact Audio Copy V1.0 beta 3 from 29. August 2011
Отчёт EAC об извлечении, выполненном 2. июня 2012, 20:05
The Triffids / Calenture
Дисковод: ASUS    DRW-24B3ST   Adapter: 0  ID: 0
Режим чтения                 : Достоверность
Использование точного потока : Да
Отключение кэша аудио        : Да
Использование указателей C2  : Нет
Коррекция смещения при чтении                     : 6
Способность читать области Lead-in и Lead-out     : Нет
Заполнение пропущенных сэмплов тишиной            : Да
Удаление блоков с тишиной в начале и конце        : Нет
При вычислениях CRC использовались нулевые сэмплы : Да
Интерфейс                                         : Установленный внешний ASPI-интерфейс
Выходной формат          : Пользовательский кодировщик
Выбранный битрейт        : 896 kBit/s
Качество                 : Высокий
Добавление ID3-тега      : Нет
Утилита сжатия           : C:\Program Files\Exact Audio Copy\Flac\flac.exe
Дополнительные параметры : -V -8 -T "Genre=%genre%" -T "Artist=%artist%" -T "Title=%title%" -T "Album=%albumtitle%" -T "Date=%year%" -T "Tracknumber=%tracknr%" -T "Comment=%comment%" %source%
TOC извлечённого CD
     Трек |   Старт  | Длительность | Начальный сектор | Конечный сектор
    ---------------------------------------------------------------------
       1  |  0:00.00 |    4:05.52   |           0      |      18426
       2  |  4:05.52 |    4:34.53   |       18427      |      39029
       3  |  8:40.30 |    3:51.25   |       39030      |      56379
       4  | 12:31.55 |    4:34.55   |       56380      |      76984
       5  | 17:06.35 |    4:02.37   |       76985      |      95171
       6  | 21:08.72 |    3:07.18   |       95172      |     109214
       7  | 24:16.15 |    3:17.60   |      109215      |     124049
       8  | 27:34.00 |    4:25.32   |      124050      |     143956
       9  | 31:59.32 |    3:57.23   |      143957      |     161754
      10  | 35:56.55 |    4:42.50   |      161755      |     182954
      11  | 40:39.30 |    1:13.00   |      182955      |     188429
      12  | 41:52.30 |    4:32.20   |      188430      |     208849
Характеристики диапазона извлечения и сообщения об ошибках
Выбранный диапазон
     Имя файла E:\EAC\The Triffids - Calenture.wav
     Пиковый уровень 100.0 %
     Скорость извлечения 5.4 X
     Качество диапазона 100.0 %
     CRC теста 22554824
     CRC копии 22554824
     Копирование... OK
Ошибок не произошло
AccurateRip: сводка
Трек  1  : извлечено точно (доверие 2)  [87ECF200]  (AR v1)
Трек  2  : извлечено точно (доверие 2)  [26B234B9]  (AR v1)
Трек  3  : извлечено точно (доверие 2)  [9C83CE5C]  (AR v1)
Трек  4  : извлечено точно (доверие 2)  [30BD15A1]  (AR v1)
Трек  5  : извлечено точно (доверие 2)  [B3FD1006]  (AR v1)
Трек  6  : извлечено точно (доверие 2)  [35000BE6]  (AR v1)
Трек  7  : извлечено точно (доверие 2)  [EF3F9BEE]  (AR v1)
Трек  8  : извлечено точно (доверие 2)  [51A9EF1C]  (AR v1)
Трек  9  : извлечено точно (доверие 2)  [001AC0B1]  (AR v1)
Трек 10  : извлечено точно (доверие 2)  [98928AED]  (AR v1)
Трек 11  : извлечено точно (доверие 2)  [9C153A2D]  (AR v1)
Трек 12  : извлечено точно (доверие 2)  [F0F0E462]  (AR v1)
Все треки извлечены точно
Конец отчёта
==== Контрольная сумма отчёта AFA961189E05CE7B046F87F1FEC6FC44F34E441C675A6D18B2D39876F671D674 ====
Код:
REM GENRE Rock
REM DATE 1987
REM DISCID 940AE00C
REM COMMENT "ExactAudioCopy v1.0b3"
PERFORMER "The Triffids"
TITLE "Calenture"
FILE "The Triffids - Calenture.flac" WAVE
  TRACK 01 AUDIO
    TITLE "Bury Me Deep In Love"
    PERFORMER "The Triffids"
    INDEX 01 00:00:00
  TRACK 02 AUDIO
    TITLE "Keely's Blues"
    PERFORMER "The Triffids"
    INDEX 01 04:05:52
  TRACK 03 AUDIO
    TITLE "A Trick Of The Light"
    PERFORMER "The Triffids"
    INDEX 01 08:40:30
  TRACK 04 AUDIO
    TITLE "Hometown Farewell Kiss"
    PERFORMER "The Triffids"
    INDEX 01 12:31:55
  TRACK 05 AUDIO
    TITLE "Unmade Love"
    PERFORMER "The Triffids"
    INDEX 01 17:06:35
  TRACK 06 AUDIO
    TITLE "Open For You"
    PERFORMER "The Triffids"
    INDEX 01 21:08:72
  TRACK 07 AUDIO
    TITLE "Holy Water"
    PERFORMER "The Triffids"
    INDEX 01 24:16:15
  TRACK 08 AUDIO
    TITLE "Blinder By The Hour"
    PERFORMER "The Triffids"
    INDEX 01 27:34:00
  TRACK 09 AUDIO
    TITLE "Vagabond Holes"
    PERFORMER "The Triffids"
    INDEX 00 31:59:25
    INDEX 01 31:59:32
  TRACK 10 AUDIO
    TITLE "Jerdacuttup Man"
    PERFORMER "The Triffids"
    INDEX 01 35:56:55
  TRACK 11 AUDIO
    TITLE "Calenture"
    PERFORMER "The Triffids"
    INDEX 01 40:39:30
  TRACK 12 AUDIO
    TITLE "Save What You Can"
    PERFORMER "The Triffids"
    INDEX 01 41:52:30
Доп. информация: http://rateyourmusic.com/artist/the_triffids
David McComb - lead vocals, guitar, piano, keyboards
'Evil' Graham Lee - pedal steel, lap steel, vocals, guitar
Robert McComb - violin, guitar, backing vocals
Martin P. Casey - bass
Alsy McDonald - drums, percussion, vocals
Jill Birt - keyboards, vocals
Adam Peters - ?
Правила, инструкции, FAQ!!!
Торрент  Добавлен [26 мар 2019, 20:29] Скачать торрент Магнет ссылка
Скачать торрент
[ Размер 13.26 КБ / Просмотров 4 ]

Статус
Проверен 
 
Размер  312.55 МБ
Приватный: Нет (DHT включён)
.torrent скачан  0
 


     Отправить личное сообщение
   
Страница 1 из 1
Показать сообщения за:  Поле сортировки  
Начать новую тему Ответить на тему


Сейчас этот форум просматривают: нет зарегистрированных пользователей и гости: 0


Вы не можете начинать темы
Вы не можете отвечать на сообщения
Вы не можете редактировать свои сообщения
Вы не можете удалять свои сообщения
Вы не можете добавлять вложения

Перейти:  
cron