Начать новую тему Ответить на тему
Статистика раздачи
Размер: 226.93 МБ | Добавлен: 26 мар 2019, 18:47 | Скачали: 0
Сидеров: 0  [0 байт/сек]    Личеров: 0  [0 байт/сек]
Пред. тема | След. тема 

Автор
Сообщение

СообщениеДобавлено: 26 мар 2019, 18:47 

Ответить с цитатой 

James Levy and the Blood Red Rose / Pray to be Free
Жанр: Indie Pop
Страна-производитель диска: UK
Год издания диска: 2012
Издатель (лейбл): Heavenly Recordings
Номер по каталогу: B006YJQB0O
Страна: US
Аудиокодек: FLAC (*.flac)
Тип рипа: tracks+.cue
Битрейт аудио: lossless
Продолжительность: 35:12
Источник (релизер): What.cd (by azurehum)
Наличие сканов в содержимом раздачи: нет
Треклист:
01. Sneak Into My Room (3:11)
02. Give Me Happiness (2:28)
03. Cryin' To The River (2:56)
04. Hung To Dry (2:52)
05. Pray To Be Free (4:21)
06. Holy Water (3:08)
07. Keep My Baby (2:36)
08. Positively East Broadway (3:06)
09. Painted Red (2:46)
10. Crying Myself To Sleep (3:05)
11. Bums in Love (2:19)
12. Precious Age Of 13 (2:24)
Код:
Exact Audio Copy V1.0 beta 3 from 29. August 2011
EAC extraction logfile from 16. February 2012, 0:26
James Levy and the Blood red nose / Pray to be Free
Used drive  : HL-DT-STDVDRAM GP40LB10   Adapter: 1  ID: 0
Read mode               : Secure
Utilize accurate stream : Yes
Defeat audio cache      : Yes
Make use of C2 pointers : No
Read offset correction                      : 6
Overread into Lead-In and Lead-Out          : No
Fill up missing offset samples with silence : Yes
Delete leading and trailing silent blocks   : No
Null samples used in CRC calculations       : Yes
Used interface                              : Native Win32 interface for Win NT & 2000
Gap handling                                : Appended to previous track
Used output format              : User Defined Encoder
Selected bitrate                : 768 kBit/s
Quality                         : High
Add ID3 tag                     : No
Command line compressor         : C:\Program Files (x86)\Exact Audio Copy\FLAC\FLAC.EXE
Additional command line options : -6 -V -T "ARTIST=%artist%" -T "TITLE=%title%" -T "ALBUM=%albumtitle%" -T "DATE=%year%" -T "TRACKNUMBER=%tracknr%" -T "GENRE=%genre%" -T "COMMENT=%comment%" -T "BAND=%albuminterpret%" -T "COMPOSER=%composer%" %haslyrics%--tag-from-file=LYRICS="%lyricsfile%"%haslyrics% -T "DISCNUMBER=%cdnumber%" -T "TOTALDISCS=%totalcds%" -T "TOTALTRACKS=%numtracks%" %hascover%--picture="%coverfile%"%hascover% %source% -o %dest%
TOC of the extracted CD
     Track |   Start  |  Length  | Start sector | End sector
    ---------------------------------------------------------
        1  |  0:00.00 |  3:11.16 |         0    |    14340
        2  |  3:11.16 |  2:28.36 |     14341    |    25476
        3  |  5:39.52 |  2:56.27 |     25477    |    38703
        4  |  8:36.04 |  2:52.57 |     38704    |    51660
        5  | 11:28.61 |  4:21.17 |     51661    |    71252
        6  | 15:50.03 |  3:08.39 |     71253    |    85391
        7  | 18:58.42 |  2:36.06 |     85392    |    97097
        8  | 21:34.48 |  3:06.12 |     97098    |   111059
        9  | 24:40.60 |  2:46.36 |    111060    |   123545
       10  | 27:27.21 |  3:05.50 |    123546    |   137470
       11  | 30:32.71 |  2:19.43 |    137471    |   147938
       12  | 32:52.39 |  2:24.43 |    147939    |   158781
Track  1
     Filename I:\Music3\James Levy and the Blood Red Rose - Pray to Be Free (2012) FLAC\01 - Sneak Into my Room.wav
     Pre-gap length  0:00:02.00
     Peak level 98.0 %
     Extraction speed 1.9 X
     Track quality 99.9 %
     Test CRC B3F7538C
     Copy CRC B3F7538C
     Track not present in AccurateRip database
     Copy OK
Track  2
     Filename I:\Music3\James Levy and the Blood Red Rose - Pray to Be Free (2012) FLAC\02 - Give me Happiness.wav
     Pre-gap length  0:00:00.61
     Peak level 98.0 %
     Extraction speed 2.7 X
     Track quality 100.0 %
     Test CRC B510DF52
     Copy CRC B510DF52
     Track not present in AccurateRip database
     Copy OK
Track  3
     Filename I:\Music3\James Levy and the Blood Red Rose - Pray to Be Free (2012) FLAC\03 - Cryin To The River.wav
     Pre-gap length  0:00:01.52
     Peak level 98.0 %
     Extraction speed 3.0 X
     Track quality 100.0 %
     Test CRC FB86B37E
     Copy CRC FB86B37E
     Track not present in AccurateRip database
     Copy OK
Track  4
     Filename I:\Music3\James Levy and the Blood Red Rose - Pray to Be Free (2012) FLAC\04 - Hung To Dry.wav
     Pre-gap length  0:00:01.23
     Peak level 98.0 %
     Extraction speed 3.2 X
     Track quality 100.0 %
     Test CRC 8BF5A6C1
     Copy CRC 8BF5A6C1
     Track not present in AccurateRip database
     Copy OK
Track  5
     Filename I:\Music3\James Levy and the Blood Red Rose - Pray to Be Free (2012) FLAC\05 - Pray To Be Free.wav
     Pre-gap length  0:00:01.53
     Peak level 98.0 %
     Extraction speed 3.5 X
     Track quality 100.0 %
     Test CRC 7AF9D765
     Copy CRC 7AF9D765
     Track not present in AccurateRip database
     Copy OK
Track  6
     Filename I:\Music3\James Levy and the Blood Red Rose - Pray to Be Free (2012) FLAC\06 - Holy Water.wav
     Pre-gap length  0:00:01.49
     Peak level 98.0 %
     Extraction speed 3.6 X
     Track quality 100.0 %
     Test CRC A70C882A
     Copy CRC A70C882A
     Track not present in AccurateRip database
     Copy OK
Track  7
     Filename I:\Music3\James Levy and the Blood Red Rose - Pray to Be Free (2012) FLAC\07 - Keep My Baby.wav
     Pre-gap length  0:00:01.47
     Peak level 98.0 %
     Extraction speed 1.5 X
     Track quality 100.0 %
     Test CRC 3CAFA594
     Copy CRC 3CAFA594
     Track not present in AccurateRip database
     Copy OK
Track  8
     Filename I:\Music3\James Levy and the Blood Red Rose - Pray to Be Free (2012) FLAC\08 - Positively East Broadway.wav
     Pre-gap length  0:00:01.39
     Peak level 98.0 %
     Extraction speed 1.7 X
     Track quality 100.0 %
     Test CRC 9ADBA35B
     Copy CRC 9ADBA35B
     Track not present in AccurateRip database
     Copy OK
Track  9
     Filename I:\Music3\James Levy and the Blood Red Rose - Pray to Be Free (2012) FLAC\09 - Painted Red.wav
     Pre-gap length  0:00:01.34
     Peak level 98.0 %
     Extraction speed 1.7 X
     Track quality 100.0 %
     Test CRC ECCE4FF9
     Copy CRC ECCE4FF9
     Track not present in AccurateRip database
     Copy OK
Track 10
     Filename I:\Music3\James Levy and the Blood Red Rose - Pray to Be Free (2012) FLAC\10 - Cry Myself To Sleep.wav
     Pre-gap length  0:00:01.15
     Peak level 98.0 %
     Extraction speed 1.8 X
     Track quality 100.0 %
     Test CRC 037F1E82
     Copy CRC 037F1E82
     Track not present in AccurateRip database
     Copy OK
Track 11
     Filename I:\Music3\James Levy and the Blood Red Rose - Pray to Be Free (2012) FLAC\11 - Bums In Love.wav
     Pre-gap length  0:00:01.55
     Peak level 98.0 %
     Extraction speed 1.7 X
     Track quality 100.0 %
     Test CRC 8B4B20BA
     Copy CRC 8B4B20BA
     Track not present in AccurateRip database
     Copy OK
Track 12
     Filename I:\Music3\James Levy and the Blood Red Rose - Pray to Be Free (2012) FLAC\12 - Precious Age Of Thirteen.wav
     Pre-gap length  0:00:01.39
     Peak level 98.0 %
     Extraction speed 1.8 X
     Track quality 100.0 %
     Test CRC EAF57207
     Copy CRC EAF57207
     Track not present in AccurateRip database
     Copy OK
None of the tracks are present in the AccurateRip database
No errors occurred
End of status report
==== Log checksum FB13560DEA787652CFE3D881AAB2D6FD8181D152D1F6698182D7C19E567050A0 ====
Код:
REM GENRE Pop
REM DATE 2012
REM DISCID A408450C
REM COMMENT "ExactAudioCopy v1.0b3"
PERFORMER "James Levy and the Blood red nose"
TITLE "Pray to be Free"
FILE "01 - Sneak Into my Room.wav" WAVE
  TRACK 01 AUDIO
    TITLE "Sneak Into my Room"
    PERFORMER "James Levy and the Blood red nose"
    INDEX 01 00:00:00
  TRACK 02 AUDIO
    TITLE "Give me Happiness"
    PERFORMER "James Levy and the Blood red nose"
    INDEX 00 03:10:30
FILE "02 - Give me Happiness.wav" WAVE
    INDEX 01 00:00:00
  TRACK 03 AUDIO
    TITLE "Cryin To The River"
    PERFORMER "James Levy and the Blood red nose"
    INDEX 00 02:26:59
FILE "03 - Cryin To The River.wav" WAVE
    INDEX 01 00:00:00
  TRACK 04 AUDIO
    TITLE "Hung To Dry"
    PERFORMER "James Levy and the Blood red nose"
    INDEX 00 02:55:04
FILE "04 - Hung To Dry.wav" WAVE
    INDEX 01 00:00:00
  TRACK 05 AUDIO
    TITLE "Pray To Be Free"
    PERFORMER "James Levy and the Blood red nose"
    INDEX 00 02:51:04
FILE "05 - Pray To Be Free.wav" WAVE
    INDEX 01 00:00:00
  TRACK 06 AUDIO
    TITLE "Holy Water"
    PERFORMER "James Levy and the Blood red nose"
    INDEX 00 04:19:43
FILE "06 - Holy Water.wav" WAVE
    INDEX 01 00:00:00
  TRACK 07 AUDIO
    TITLE "Keep My Baby"
    PERFORMER "James Levy and the Blood red nose"
    INDEX 00 03:06:67
FILE "07 - Keep My Baby.wav" WAVE
    INDEX 01 00:00:00
  TRACK 08 AUDIO
    TITLE "Positively East Broadway"
    PERFORMER "James Levy and the Blood red nose"
    INDEX 00 02:34:42
FILE "08 - Positively East Broadway.wav" WAVE
    INDEX 01 00:00:00
  TRACK 09 AUDIO
    TITLE "Painted Red"
    PERFORMER "James Levy and the Blood red nose"
    INDEX 00 03:04:53
FILE "09 - Painted Red.wav" WAVE
    INDEX 01 00:00:00
  TRACK 10 AUDIO
    TITLE "Cry Myself To Sleep"
    PERFORMER "James Levy and the Blood red nose"
    INDEX 00 02:45:21
FILE "10 - Cry Myself To Sleep.wav" WAVE
    INDEX 01 00:00:00
  TRACK 11 AUDIO
    TITLE "Bums In Love"
    PERFORMER "James Levy and the Blood red nose"
    INDEX 00 03:03:70
FILE "11 - Bums In Love.wav" WAVE
    INDEX 01 00:00:00
  TRACK 12 AUDIO
    TITLE "Precious Age Of Thirteen"
    PERFORMER "James Levy and the Blood red nose"
    INDEX 00 02:18:04
FILE "12 - Precious Age Of Thirteen.wav" WAVE
    INDEX 01 00:00:00
Правила, инструкции, FAQ!!!
Торрент  Добавлен [26 мар 2019, 18:47] Скачать торрент Магнет ссылка
Скачать торрент
[ Размер 19.07 КБ / Просмотров 2 ]

Статус
Проверен 
 
Размер  226.93 МБ
Приватный: Нет (DHT включён)
.torrent скачан  0
 


     Отправить личное сообщение
   
Страница 1 из 1
Показать сообщения за:  Поле сортировки  
Начать новую тему Ответить на тему


Сейчас этот форум просматривают: нет зарегистрированных пользователей и гости: 0


Вы не можете начинать темы
Вы не можете отвечать на сообщения
Вы не можете редактировать свои сообщения
Вы не можете удалять свои сообщения
Вы не можете добавлять вложения

Перейти:  
cron