Начать новую тему Ответить на тему
Статистика раздачи
Размер: 640.11 МБ | Добавлен: 26 мар 2019, 19:26 | Скачали: 0
Сидеров: 0  [0 байт/сек]    Личеров: 0  [0 байт/сек]
Пред. тема | След. тема 

Автор
Сообщение

СообщениеДобавлено: 26 мар 2019, 19:26 

Ответить с цитатой 

Jenny Wilson - Blazing
#777Жанр: Indie, R&B
Год издания диска: 2011
Издатель (лейбл): Gold Medal Recordings
Номер по каталогу: GMR1015
Страна: Sweden
Аудиокодек: FLAC (*.flac)
Тип рипа: tracks+.cue
Битрейт аудио: lossless
Продолжительность: 1:52:57
Источник (релизер): собственный
Наличие сканов в содержимом раздачи: есть
CD1
1 Pass Me The Salt
2 Work
3 Anchor Made Of Gold
4 Like A Fading Rainbow
5 Bad Waters
6 Hardships
7 Would I Play With My Band
8 Clattering Hooves
9 Only Here For The Fight
10 Done!
11 Coming 'Round The Mountain
CD2
1 The Steps
2 Beyond That Wasteland
3 Psaltar
4 Woodcuts
5 Motherhood - Warm Your Hands In The Heat
6 Pass Me The Salt - Richard Brain Rmx
7 Faded Rainbow Delta - Richard Brain Rmx
8 Anchor Made Of Gold - Into The Woods Rmx
Cover photos by Julia Hetta.
The music of CD2 was originally written for the dance performance I`m Not Looking Back, in choreography by Helena Franzén.
Код:
Exact Audio Copy V1.0 beta 3 from 29. August 2011
EAC extraction logfile from 18. February 2012, 17:48
Jenny Wilson / Blazing (CD1)
Used drive  : SlimtypeDVD A  DS8A5SH   Adapter: 0  ID: 1
Read mode               : Secure
Utilize accurate stream : Yes
Defeat audio cache      : Yes
Make use of C2 pointers : No
Read offset correction                      : 6
Overread into Lead-In and Lead-Out          : No
Fill up missing offset samples with silence : Yes
Delete leading and trailing silent blocks   : No
Null samples used in CRC calculations       : Yes
Used interface                              : Native Win32 interface for Win NT & 2000
Gap handling                                : Appended to previous track
Used output format              : User Defined Encoder
Selected bitrate                : 128 kBit/s
Quality                         : High
Add ID3 tag                     : No
Command line compressor         : C:\Program Files (x86)\Exact Audio Copy\Flac\flac.exe
Additional command line options : -V -8 -T "Genre=%genre%" -T "Artist=%artist%" -T "Title=%title%" -T "Album=%albumtitle%" -T "Date=%year%" -T "Tracknumber=%tracknr%" -T "Comment=%comment%" %source%
TOC of the extracted CD
     Track |   Start  |  Length  | Start sector | End sector
    ---------------------------------------------------------
        1  |  0:00.00 |  4:15.54 |         0    |    19178
        2  |  4:15.54 |  3:43.67 |     19179    |    35970
        3  |  7:59.46 |  5:05.18 |     35971    |    58863
        4  | 13:04.64 |  6:46.66 |     58864    |    89379
        5  | 19:51.55 |  4:53.55 |     89380    |   111409
        6  | 24:45.35 |  3:28.30 |    111410    |   127039
        7  | 28:13.65 |  4:03.29 |    127040    |   145293
        8  | 32:17.19 |  4:42.65 |    145294    |   166508
        9  | 37:00.09 |  5:19.56 |    166509    |   190489
       10  | 42:19.65 |  0:29.33 |    190490    |   192697
       11  | 42:49.23 |  3:55.28 |    192698    |   210350
Track  1
     Filename D:\Musak 2\Jenny Wilson\Blazing (2011)\Blazing (CD1)\01. Pass Me The Salt.wav
     Pre-gap length  0:00:02.00
     Peak level 98.8 %
     Extraction speed 1.1 X
     Track quality 100.0 %
     Test CRC 6A093193
     Copy CRC 6A093193
     Track not present in AccurateRip database
     Copy OK
Track  2
     Filename D:\Musak 2\Jenny Wilson\Blazing (2011)\Blazing (CD1)\02. Work.wav
     Peak level 98.8 %
     Extraction speed 1.2 X
     Track quality 100.0 %
     Test CRC 023C3A1B
     Copy CRC 023C3A1B
     Track not present in AccurateRip database
     Copy OK
Track  3
     Filename D:\Musak 2\Jenny Wilson\Blazing (2011)\Blazing (CD1)\03. Anchor Made Of Gold.wav
     Peak level 98.8 %
     Extraction speed 1.4 X
     Track quality 100.0 %
     Test CRC A371E0DD
     Copy CRC A371E0DD
     Track not present in AccurateRip database
     Copy OK
Track  4
     Filename D:\Musak 2\Jenny Wilson\Blazing (2011)\Blazing (CD1)\04. Like A Fading Rainbow.wav
     Peak level 98.8 %
     Extraction speed 1.6 X
     Track quality 100.0 %
     Test CRC 5923FAFF
     Copy CRC 5923FAFF
     Track not present in AccurateRip database
     Copy OK
Track  5
     Filename D:\Musak 2\Jenny Wilson\Blazing (2011)\Blazing (CD1)\05. Bad Waters.wav
     Peak level 98.8 %
     Extraction speed 1.6 X
     Track quality 100.0 %
     Test CRC 26833841
     Copy CRC 26833841
     Track not present in AccurateRip database
     Copy OK
Track  6
     Filename D:\Musak 2\Jenny Wilson\Blazing (2011)\Blazing (CD1)\06. Hardships.wav
     Peak level 98.8 %
     Extraction speed 1.7 X
     Track quality 100.0 %
     Test CRC BE0A6F09
     Copy CRC BE0A6F09
     Track not present in AccurateRip database
     Copy OK
Track  7
     Filename D:\Musak 2\Jenny Wilson\Blazing (2011)\Blazing (CD1)\07. Would I Play With My Band.wav
     Peak level 98.8 %
     Extraction speed 1.8 X
     Track quality 100.0 %
     Test CRC 4EE97A09
     Copy CRC 4EE97A09
     Track not present in AccurateRip database
     Copy OK
Track  8
     Filename D:\Musak 2\Jenny Wilson\Blazing (2011)\Blazing (CD1)\08. Clattering Hooves.wav
     Peak level 98.8 %
     Extraction speed 1.7 X
     Track quality 99.9 %
     Test CRC 1E1D2B56
     Copy CRC 1E1D2B56
     Track not present in AccurateRip database
     Copy OK
Track  9
     Filename D:\Musak 2\Jenny Wilson\Blazing (2011)\Blazing (CD1)\09. Only Here For The Fight.wav
     Peak level 98.8 %
     Extraction speed 2.0 X
     Track quality 100.0 %
     Test CRC 05820ED4
     Copy CRC 05820ED4
     Track not present in AccurateRip database
     Copy OK
Track 10
     Filename D:\Musak 2\Jenny Wilson\Blazing (2011)\Blazing (CD1)\10. Done!.wav
     Peak level 86.7 %
     Extraction speed 1.0 X
     Track quality 100.0 %
     Test CRC CC3FA59E
     Copy CRC CC3FA59E
     Track not present in AccurateRip database
     Copy OK
Track 11
     Filename D:\Musak 2\Jenny Wilson\Blazing (2011)\Blazing (CD1)\11. Coming 'Round The Mountain.wav
     Peak level 98.8 %
     Extraction speed 1.8 X
     Track quality 99.9 %
     Test CRC 0B53ACC6
     Copy CRC 0B53ACC6
     Track not present in AccurateRip database
     Copy OK
None of the tracks are present in the AccurateRip database
No errors occurred
End of status report
==== Log checksum 31CB671802FF84A73ACADE4AE8100BF4B7A7531D92FF7C3E0A709FFAA29CB0B1 ====
Код:
Exact Audio Copy V1.0 beta 3 from 29. August 2011
EAC extraction logfile from 18. February 2012, 21:43
Jenny Wilson / Blazing (CD2)
Used drive  : SlimtypeDVD A  DS8A5SH   Adapter: 0  ID: 1
Read mode               : Secure
Utilize accurate stream : Yes
Defeat audio cache      : Yes
Make use of C2 pointers : No
Read offset correction                      : 6
Overread into Lead-In and Lead-Out          : No
Fill up missing offset samples with silence : Yes
Delete leading and trailing silent blocks   : No
Null samples used in CRC calculations       : Yes
Used interface                              : Native Win32 interface for Win NT & 2000
Gap handling                                : Appended to previous track
Used output format              : User Defined Encoder
Selected bitrate                : 128 kBit/s
Quality                         : High
Add ID3 tag                     : No
Command line compressor         : C:\Program Files (x86)\Exact Audio Copy\Flac\flac.exe
Additional command line options : -V -8 -T "Genre=%genre%" -T "Artist=%artist%" -T "Title=%title%" -T "Album=%albumtitle%" -T "Date=%year%" -T "Tracknumber=%tracknr%" -T "Comment=%comment%" %source%
TOC of the extracted CD
     Track |   Start  |  Length  | Start sector | End sector
    ---------------------------------------------------------
        1  |  0:00.00 |  6:35.20 |         0    |    29644
        2  |  6:35.20 | 12:50.16 |     29645    |    87410
        3  | 19:25.36 | 12:00.30 |     87411    |   141440
        4  | 31:25.66 |  6:45.05 |    141441    |   171820
        5  | 38:10.71 |  8:35.55 |    171821    |   210500
        6  | 46:46.51 |  5:52.11 |    210501    |   236911
        7  | 52:38.62 |  7:52.09 |    236912    |   272320
        8  | 60:30.71 |  5:50.40 |    272321    |   298610
Track  1
     Filename D:\Musak 2\Jenny Wilson\Blazing (2011)\Blazing (CD2)\01. The Steps.wav
     Pre-gap length  0:00:02.00
     Peak level 90.2 %
     Extraction speed 1.2 X
     Track quality 100.0 %
     Test CRC 5B738D60
     Copy CRC 5B738D60
     Track not present in AccurateRip database
     Copy OK
Track  2
     Filename D:\Musak 2\Jenny Wilson\Blazing (2011)\Blazing (CD2)\02. Beyond That Wasteland.wav
     Peak level 98.1 %
     Extraction speed 1.5 X
     Track quality 99.9 %
     Test CRC 9F0A02DA
     Copy CRC 9F0A02DA
     Track not present in AccurateRip database
     Copy OK
Track  3
     Filename D:\Musak 2\Jenny Wilson\Blazing (2011)\Blazing (CD2)\03. Psaltar.wav
     Peak level 96.7 %
     Extraction speed 1.8 X
     Track quality 99.9 %
     Test CRC 8938AFF9
     Copy CRC 8938AFF9
     Track not present in AccurateRip database
     Copy OK
Track  4
     Filename D:\Musak 2\Jenny Wilson\Blazing (2011)\Blazing (CD2)\04. Woodcuts.wav
     Peak level 95.6 %
     Extraction speed 2.0 X
     Track quality 100.0 %
     Test CRC 32A1144B
     Copy CRC 32A1144B
     Track not present in AccurateRip database
     Copy OK
Track  5
     Filename D:\Musak 2\Jenny Wilson\Blazing (2011)\Blazing (CD2)\05. Motherhood - Warm Your Hands In The Heat.wav
     Peak level 95.1 %
     Extraction speed 2.2 X
     Track quality 100.0 %
     Test CRC 491A9168
     Copy CRC 491A9168
     Track not present in AccurateRip database
     Copy OK
Track  6
     Filename D:\Musak 2\Jenny Wilson\Blazing (2011)\Blazing (CD2)\06. Pass Me The Salt - Richard Brain RMX.wav
     Peak level 96.9 %
     Extraction speed 2.3 X
     Track quality 100.0 %
     Test CRC FF3BC01F
     Copy CRC FF3BC01F
     Track not present in AccurateRip database
     Copy OK
Track  7
     Filename D:\Musak 2\Jenny Wilson\Blazing (2011)\Blazing (CD2)\07. Faded Rainbow Delta - Richard Brain RMX.wav
     Peak level 98.2 %
     Extraction speed 2.4 X
     Track quality 100.0 %
     Test CRC 9115E13C
     Copy CRC 9115E13C
     Track not present in AccurateRip database
     Copy OK
Track  8
     Filename D:\Musak 2\Jenny Wilson\Blazing (2011)\Blazing (CD2)\08. Anchor Made Of Gold - Into The Woods RMX.wav
     Peak level 94.7 %
     Extraction speed 2.5 X
     Track quality 100.0 %
     Test CRC F6C52639
     Copy CRC F6C52639
     Track not present in AccurateRip database
     Copy OK
None of the tracks are present in the AccurateRip database
No errors occurred
End of status report
==== Log checksum 42536AA88B4EBFE763850C53143439D21BEBFFCD51DC2889F63B6A46619C20C9 ====
Код:
REM GENRE Indie
REM DATE 2011
REM DISCID A20AF40B
REM COMMENT "ExactAudioCopy v1.0b3"
PERFORMER "Jenny Wilson"
TITLE "Blazing (CD1)"
FILE "01. Pass Me The Salt.wav" WAVE
  TRACK 01 AUDIO
    TITLE "Pass Me The Salt"
    PERFORMER "Jenny Wilson"
    ISRC SEYO11100101
    FLAGS DCP
    INDEX 01 00:00:00
FILE "02. Work.wav" WAVE
  TRACK 02 AUDIO
    TITLE "Work"
    PERFORMER "Jenny Wilson"
    ISRC SEYO11100102
    FLAGS DCP
    INDEX 01 00:00:00
FILE "03. Anchor Made Of Gold.wav" WAVE
  TRACK 03 AUDIO
    TITLE "Anchor Made Of Gold"
    PERFORMER "Jenny Wilson"
    ISRC SEYO11100103
    FLAGS DCP
    INDEX 01 00:00:00
FILE "04. Like A Fading Rainbow.wav" WAVE
  TRACK 04 AUDIO
    TITLE "Like A Fading Rainbow"
    PERFORMER "Jenny Wilson"
    ISRC SEYO11100104
    FLAGS DCP
    INDEX 01 00:00:00
FILE "05. Bad Waters.wav" WAVE
  TRACK 05 AUDIO
    TITLE "Bad Waters"
    PERFORMER "Jenny Wilson"
    ISRC SEYO11100105
    FLAGS DCP
    INDEX 01 00:00:00
FILE "06. Hardships.wav" WAVE
  TRACK 06 AUDIO
    TITLE "Hardships"
    PERFORMER "Jenny Wilson"
    ISRC SEYO11100106
    FLAGS DCP
    INDEX 01 00:00:00
FILE "07. Would I Play With My Band.wav" WAVE
  TRACK 07 AUDIO
    TITLE "Would I Play With My Band"
    PERFORMER "Jenny Wilson"
    ISRC SEYO11100107
    FLAGS DCP
    INDEX 01 00:00:00
FILE "08. Clattering Hooves.wav" WAVE
  TRACK 08 AUDIO
    TITLE "Clattering Hooves"
    PERFORMER "Jenny Wilson"
    ISRC SEYO11100108
    FLAGS DCP
    INDEX 01 00:00:00
FILE "09. Only Here For The Fight.wav" WAVE
  TRACK 09 AUDIO
    TITLE "Only Here For The Fight"
    PERFORMER "Jenny Wilson"
    ISRC SEYO11100109
    FLAGS DCP
    INDEX 01 00:00:00
FILE "10. Done!.wav" WAVE
  TRACK 10 AUDIO
    TITLE "Done!"
    PERFORMER "Jenny Wilson"
    ISRC SEYO11100110
    FLAGS DCP
    INDEX 01 00:00:00
FILE "11. Coming 'Round The Mountain.wav" WAVE
  TRACK 11 AUDIO
    TITLE "Coming 'Round The Mountain"
    PERFORMER "Jenny Wilson"
    ISRC SEYO11100111
    FLAGS DCP
    INDEX 01 00:00:00
Код:
REM GENRE Indie
REM DATE 2011
REM DISCID 750F8D08
REM COMMENT "ExactAudioCopy v1.0b3"
PERFORMER "Jenny Wilson"
TITLE "Blazing (CD2)"
FILE "01. The Steps.wav" WAVE
  TRACK 01 AUDIO
    TITLE "The Steps"
    PERFORMER "Jenny Wilson"
    ISRC SEYO11100112
    INDEX 01 00:00:00
FILE "02. Beyond That Wasteland.wav" WAVE
  TRACK 02 AUDIO
    TITLE "Beyond That Wasteland"
    PERFORMER "Jenny Wilson"
    ISRC SEYO11100113
    INDEX 01 00:00:00
FILE "03. Psaltar.wav" WAVE
  TRACK 03 AUDIO
    TITLE "Psaltar"
    PERFORMER "Jenny Wilson"
    ISRC SEYO11100114
    INDEX 01 00:00:00
FILE "04. Woodcuts.wav" WAVE
  TRACK 04 AUDIO
    TITLE "Woodcuts"
    PERFORMER "Jenny Wilson"
    ISRC SEYO11100115
    INDEX 01 00:00:00
FILE "05. Motherhood - Warm Your Hands In The Heat.wav" WAVE
  TRACK 05 AUDIO
    TITLE "Motherhood - Warm Your Hands In The Heat"
    PERFORMER "Jenny Wilson"
    ISRC SEYO11100116
    INDEX 01 00:00:00
FILE "06. Pass Me The Salt - Richard Brain RMX.wav" WAVE
  TRACK 06 AUDIO
    TITLE "Pass Me The Salt - Richard Brain RMX"
    PERFORMER "Jenny Wilson"
    ISRC SEYO11100117
    INDEX 01 00:00:00
FILE "07. Faded Rainbow Delta - Richard Brain RMX.wav" WAVE
  TRACK 07 AUDIO
    TITLE "Faded Rainbow Delta - Richard Brain RMX"
    PERFORMER "Jenny Wilson"
    ISRC SEYO11100118
    INDEX 01 00:00:00
FILE "08. Anchor Made Of Gold - Into The Woods RMX.wav" WAVE
  TRACK 08 AUDIO
    TITLE "Anchor Made Of Gold - Into The Woods RMX"
    PERFORMER "Jenny Wilson"
    ISRC SEYO11100119
    INDEX 01 00:00:00
Jenny Wilson released her celebrated solo debut Love and Youth 2005, with hit songs as Let My Shoes Lead Me Forward and Summertime the Roughest Time. The album received several awards, one of them was the P3 Guld award for Pop of the Year 2005. The album Love and Youth also attracted international attention, which lead to several much appreciated tours in Scandinavia, Europe and Australia. During 2006 she wrote the soundtrack for a Norwegian documentary.
In the Fall of 2006 Jenny Wilson gave birth to her second child and the first ideas for her second album were also born. In 2009 acclaimed album “Hardships!” was self-produced, recorded and released by Jenny Wilson and her newly started record company, Gold Medal Recordings. It includes the finest of guests, such as Mapei, Simone Rubi and El Perro Del Mar.
Then in 2010, Jenny Wilson began a collaboration with the Tensta Gospel Choir, which would result in a series of concerts and recordings reworking the material from the ‘Hardships!’ album.
However, shortly after the studio recordings, Wilson was diagnosed with breast cancer. The entire summer tour with Tensta Gospel Choir was canceled and Wilson began a chemotherapy treatment in the autumn. Parallel to that she worked with Daniel Fagge Fagerström (The Je Ne Sais Quoi, Skull Defekts) on the music for Helena Franzйn’s dance performance “I’m Not Looking Back” at Dansens Hus in Stockholm. Even this was based on Jenny Wilson’s tracks on “Hardships!”.
On April 6th, Jenny Wilson releases a double album featuring both of the above versions of “Hardships!” entitled “Blazing”. To celebrate this new release, this phenomenal artist will be going on a small tour with Tensta Gospel Choir.
Правила, инструкции, FAQ!!!
Торрент  Добавлен [26 мар 2019, 19:26] Скачать торрент Магнет ссылка
Скачать торрент
[ Размер 14.91 КБ / Просмотров 0 ]

Статус
Проверен 
 
Размер  640.11 МБ
Приватный: Нет (DHT включён)
.torrent скачан  0
 


     Отправить личное сообщение
   
Страница 1 из 1
Показать сообщения за:  Поле сортировки  
Начать новую тему Ответить на тему


Сейчас этот форум просматривают: нет зарегистрированных пользователей и гости: 0


Вы не можете начинать темы
Вы не можете отвечать на сообщения
Вы не можете редактировать свои сообщения
Вы не можете удалять свои сообщения
Вы не можете добавлять вложения

Перейти:  
cron