Начать новую тему Ответить на тему
Статистика раздачи
Размер: 259.29 МБ | Добавлен: 26 мар 2019, 20:17 | Скачали: 0
Сидеров: 0  [0 байт/сек]    Личеров: 0  [0 байт/сек]
Пред. тема | След. тема 

Автор
Сообщение

СообщениеДобавлено: 26 мар 2019, 20:17 

Ответить с цитатой 

William Shatner / Has Been
Жанр: Indie, Comedy, Spoken Word
Год издания: 2004
Страна: US
Аудиокодек: FLAC (*.flac)
Тип рипа: tracks+.cue
Битрейт аудио: lossless
Продолжительность: 39:49
Источник (релизер): what.cd (serhio)
Наличие сканов в содержимом раздачи: да
Треклист:
01 Common People
02 It Hasn't Happened Yet
03 You'll Have Time
04 That's Me Trying
05 What Have You Done
06 Together
07 Familiar Love
08 Ideal Woman
09 Has Been
10 I Can't Get Behind That
11 Real
Код:
Exact Audio Copy V0.99 prebeta 4 from 23. January 2008
EAC extraction logfile from 7. May 2009, 14:03
William Shatner / Has Been
Used drive  : HL-DT-STDVDRAM GH15F   Adapter: 1  ID: 0
Read mode               : Secure
Utilize accurate stream : Yes
Defeat audio cache      : Yes
Make use of C2 pointers : No
Read offset correction                      : 667
Overread into Lead-In and Lead-Out          : No
Fill up missing offset samples with silence : Yes
Delete leading and trailing silent blocks   : No
Null samples used in CRC calculations       : Yes
Used interface                              : Native Win32 interface for Win NT & 2000
Gap handling                                : Appended to previous track
Used output format : Internal WAV Routines
Sample format      : 44.100 Hz; 16 Bit; Stereo
TOC of the extracted CD
     Track |   Start  |  Length  | Start sector | End sector
    ---------------------------------------------------------
        1  |  0:00.00 |  4:40.37 |         0    |    21036
        2  |  4:40.37 |  3:49.42 |     21037    |    38253
        3  |  8:30.04 |  5:18.24 |     38254    |    62127
        4  | 13:48.28 |  3:48.72 |     62128    |    79299
        5  | 17:37.25 |  1:46.31 |     79300    |    87280
        6  | 19:23.56 |  5:39.37 |     87281    |   112742
        7  | 25:03.18 |  4:00.54 |    112743    |   130796
        8  | 29:03.72 |  2:23.73 |    130797    |   141594
        9  | 31:27.70 |  2:18.24 |    141595    |   151968
       10  | 33:46.19 |  3:00.25 |    151969    |   165493
       11  | 36:46.44 |  3:08.28 |    165494    |   179621
Track  1
     Filename J:\Eac Rips\William Shatner - 2004 - Has Been\01 - Common People.wav
     Pre-gap length  0:00:02.00
     Peak level 96.6 %
     Track quality 100.0 %
     Test CRC D530C1C4
     Copy CRC D530C1C4
     Accurately ripped (confidence 31)  [1B29699A]
     Copy OK
Track  2
     Filename J:\Eac Rips\William Shatner - 2004 - Has Been\02 - It Hasn't Happened Yet.wav
     Pre-gap length  0:00:02.44
     Peak level 96.6 %
     Track quality 99.9 %
     Test CRC 51EB201E
     Copy CRC 51EB201E
     Accurately ripped (confidence 30)  [0FD55DE0]
     Copy OK
Track  3
     Filename J:\Eac Rips\William Shatner - 2004 - Has Been\03 - You'll Have Time.wav
     Pre-gap length  0:00:03.32
     Peak level 96.6 %
     Track quality 100.0 %
     Test CRC 742EEEBB
     Copy CRC 742EEEBB
     Accurately ripped (confidence 31)  [A7F15968]
     Copy OK
Track  4
     Filename J:\Eac Rips\William Shatner - 2004 - Has Been\04 - That's Me Trying.wav
     Pre-gap length  0:00:02.76
     Peak level 96.6 %
     Track quality 100.0 %
     Test CRC FE02E6F9
     Copy CRC FE02E6F9
     Accurately ripped (confidence 30)  [DB17888D]
     Copy OK
Track  5
     Filename J:\Eac Rips\William Shatner - 2004 - Has Been\05 - What Have You Done.wav
     Pre-gap length  0:00:03.05
     Peak level 96.6 %
     Track quality 100.0 %
     Test CRC B1D82ACB
     Copy CRC B1D82ACB
     Accurately ripped (confidence 30)  [B590EA16]
     Copy OK
Track  6
     Filename J:\Eac Rips\William Shatner - 2004 - Has Been\06 - Together.wav
     Pre-gap length  0:00:03.14
     Peak level 96.6 %
     Track quality 100.0 %
     Test CRC 2065F4BD
     Copy CRC 2065F4BD
     Accurately ripped (confidence 30)  [A875F51C]
     Copy OK
Track  7
     Filename J:\Eac Rips\William Shatner - 2004 - Has Been\07 - Familiar Love.wav
     Pre-gap length  0:00:03.10
     Peak level 96.6 %
     Track quality 99.9 %
     Test CRC DB669ADD
     Copy CRC DB669ADD
     Accurately ripped (confidence 31)  [FD58F33F]
     Copy OK
Track  8
     Filename J:\Eac Rips\William Shatner - 2004 - Has Been\08 - Ideal Woman.wav
     Pre-gap length  0:00:03.56
     Peak level 96.6 %
     Track quality 100.0 %
     Test CRC 620029BE
     Copy CRC 620029BE
     Accurately ripped (confidence 31)  [4F886AE4]
     Copy OK
Track  9
     Filename J:\Eac Rips\William Shatner - 2004 - Has Been\09 - Has Been.wav
     Pre-gap length  0:00:01.66
     Peak level 96.6 %
     Track quality 100.0 %
     Test CRC 79EEDFA9
     Copy CRC 79EEDFA9
     Accurately ripped (confidence 31)  [46C84BF6]
     Copy OK
Track 10
     Filename J:\Eac Rips\William Shatner - 2004 - Has Been\10 - I Can't Get Behind That.wav
     Pre-gap length  0:00:01.74
     Peak level 96.6 %
     Track quality 99.9 %
     Test CRC 25CE4682
     Copy CRC 25CE4682
     Accurately ripped (confidence 31)  [DAE6A3B5]
     Copy OK
Track 11
     Filename J:\Eac Rips\William Shatner - 2004 - Has Been\11 - Real.wav
     Peak level 96.6 %
     Track quality 100.0 %
     Test CRC FA51B206
     Copy CRC FA51B206
     Accurately ripped (confidence 31)  [1C98644F]
     Copy OK
All tracks accurately ripped
No errors occurred
End of status report
Код:
REM GENRE Rock
REM DATE 2004
REM DISCID 8B095A0B
REM COMMENT "ExactAudioCopy v0.99pb4"
FILE "William Shatner - 2004 - Has Been\01 - Common People.wav" WAVE
  TRACK 01 AUDIO
    INDEX 01 00:00:00
  TRACK 02 AUDIO
    INDEX 00 04:38:04
FILE "William Shatner - 2004 - Has Been\02 - It Hasn't Happened Yet.wav" WAVE
    INDEX 01 00:00:00
  TRACK 03 AUDIO
    INDEX 00 03:46:18
FILE "William Shatner - 2004 - Has Been\03 - You'll Have Time.wav" WAVE
    INDEX 01 00:00:00
  TRACK 04 AUDIO
    INDEX 00 05:15:42
FILE "William Shatner - 2004 - Has Been\04 - That's Me Trying.wav" WAVE
    INDEX 01 00:00:00
  TRACK 05 AUDIO
    INDEX 00 03:45:68
FILE "William Shatner - 2004 - Has Been\05 - What Have You Done.wav" WAVE
    INDEX 01 00:00:00
  TRACK 06 AUDIO
    INDEX 00 01:43:20
FILE "William Shatner - 2004 - Has Been\06 - Together.wav" WAVE
    INDEX 01 00:00:00
  TRACK 07 AUDIO
    INDEX 00 05:36:29
FILE "William Shatner - 2004 - Has Been\07 - Familiar Love.wav" WAVE
    INDEX 01 00:00:00
  TRACK 08 AUDIO
    INDEX 00 03:57:12
FILE "William Shatner - 2004 - Has Been\08 - Ideal Woman.wav" WAVE
    INDEX 01 00:00:00
  TRACK 09 AUDIO
    INDEX 00 02:22:23
FILE "William Shatner - 2004 - Has Been\09 - Has Been.wav" WAVE
    INDEX 01 00:00:00
  TRACK 10 AUDIO
    INDEX 00 02:16:43
FILE "William Shatner - 2004 - Has Been\10 - I Can't Get Behind That.wav" WAVE
    INDEX 01 00:00:00
FILE "William Shatner - 2004 - Has Been\11 - Real.wav" WAVE
  TRACK 11 AUDIO
    INDEX 01 00:00:00
Правила, инструкции, FAQ!!!
Торрент  Добавлен [26 мар 2019, 20:17] Скачать торрент Магнет ссылка
Скачать торрент
[ Размер 11.75 КБ / Просмотров 2 ]

Статус
Проверен 
 
Размер  259.29 МБ
Приватный: Нет (DHT включён)
.torrent скачан  0
 


     Отправить личное сообщение
   
Страница 1 из 1
Показать сообщения за:  Поле сортировки  
Начать новую тему Ответить на тему


Сейчас этот форум просматривают: нет зарегистрированных пользователей и гости: 0


Вы не можете начинать темы
Вы не можете отвечать на сообщения
Вы не можете редактировать свои сообщения
Вы не можете удалять свои сообщения
Вы не можете добавлять вложения

Перейти:  
cron