Начать новую тему Ответить на тему
Статистика раздачи
Размер: 323.67 МБ | Добавлен: 01 янв 2020, 23:01 | Скачали: 1
Сидеров: 4  [0 байт/сек]    Личеров: 1  [0 байт/сек]
Пред. тема | След. тема 

Автор
Сообщение

СообщениеДобавлено: 01 янв 2020, 23:01 

Ответить с цитатой 

Camille - Le Fil
Жанр: Indie
Страна-производитель диска: France
Год издания диска: 2005
Издатель (лейбл): Virgin Records
Аудиокодек: FLAC (*.flac)
Тип рипа: tracks+.cue
Битрейт аудио: lossless
Продолжительность: 1:14:23
Источник (релизер): what.cd (RuthlessVermin)
Наличие сканов в содержимом раздачи: нет
1 La Jeune Fille Aux Cheveux Blancs
2 Ta Douleur
3 Assise
4 Janine I
5 Vous
6 Baby Carni Bird
7 Pour Que L'Amour Me Quitte
8 Senza
9 Janine II
10 Vertige
11 Au Port
12 Janine III
13 Pâle Septembre
14 Rue De Ménilmontant
15 Quand Je Marche
16 J'Ai Tort
17 Jolie Bruine
18 Lumière
Код:
Exact Audio Copy V0.99 prebeta 4 from 23. January 2008
EAC extraction logfile from 6. April 2009, 22:23
Camille / Le Fil
Used drive  : TSSTcorpCDDVDW SH-S223Q   Adapter: 0  ID: 1
Read mode               : Secure
Utilize accurate stream : Yes
Defeat audio cache      : Yes
Make use of C2 pointers : No
Read offset correction                      : 6
Overread into Lead-In and Lead-Out          : No
Fill up missing offset samples with silence : Yes
Delete leading and trailing silent blocks   : No
Null samples used in CRC calculations       : Yes
Used interface                              : Native Win32 interface for Win NT & 2000
Gap handling                                : Appended to previous track
Used output format              : User Defined Encoder
Selected bitrate                : 320 kBit/s
Quality                         : High
Add ID3 tag                     : No
Command line compressor         : C:\Program Files (x86)\Exact Audio Copy\Flac\flac.exe
Additional command line options : -V -8 -T "artist=%a" -T "title=%t" -T "album=%g" -T "date=%y" -T "tracknumber=%n" -T "genre=%m" %s
TOC of the extracted CD
     Track |   Start  |  Length  | Start sector | End sector
    ---------------------------------------------------------
        1  |  0:00.00 |  2:16.59 |         0    |    10258
        2  |  2:16.59 |  3:06.70 |     10259    |    24278
        3  |  5:23.54 |  2:16.71 |     24279    |    34549
        4  |  7:40.50 |  0:53.49 |     34550    |    38573
        5  |  8:34.24 |  1:41.05 |     38574    |    46153
        6  | 10:15.29 |  3:58.17 |     46154    |    64020
        7  | 14:13.46 |  2:46.54 |     64021    |    76524
        8  | 17:00.25 |  2:28.56 |     76525    |    87680
        9  | 19:29.06 |  0:52.39 |     87681    |    91619
       10  | 20:21.45 |  3:00.02 |     91620    |   105121
       11  | 23:21.47 |  2:56.20 |    105122    |   118341
       12  | 26:17.67 |  1:27.63 |    118342    |   124929
       13  | 27:45.55 |  3:34.40 |    124930    |   141019
       14  | 31:20.20 |  1:11.33 |    141020    |   146377
       15  | 32:31.53 |  4:33.58 |    146378    |   166910
       16  | 37:05.36 |  3:37.46 |    166911    |   183231
       17  | 40:43.07 |  2:15.18 |    183232    |   193374
       18  | 42:58.25 | 31:34.50 |    193375    |   335474
Track  1
     Filename C:\EACRips\Camille - 2006 - Le Fil\01 - La jeune fille aux cheveux blancs.wav
     Pre-gap length  0:00:02.00
     Peak level 100.0 %
     Track quality 99.9 %
     Test CRC 0F15221F
     Copy CRC 0F15221F
     Accurately ripped (confidence 5)  [F7F8A125]
     Copy OK
Track  2
     Filename C:\EACRips\Camille - 2006 - Le Fil\02 - Ta douleur.wav
     Peak level 97.8 %
     Track quality 99.9 %
     Test CRC E57B3256
     Copy CRC E57B3256
     Accurately ripped (confidence 5)  [58932491]
     Copy OK
Track  3
     Filename C:\EACRips\Camille - 2006 - Le Fil\03 - Assise.wav
     Peak level 97.8 %
     Track quality 100.0 %
     Test CRC 12117CD7
     Copy CRC 12117CD7
     Accurately ripped (confidence 5)  [0814A5F5]
     Copy OK
Track  4
     Filename C:\EACRips\Camille - 2006 - Le Fil\04 - Janine I.wav
     Peak level 97.8 %
     Track quality 100.0 %
     Test CRC 66748CE4
     Copy CRC 66748CE4
     Accurately ripped (confidence 5)  [DCC0B67D]
     Copy OK
Track  5
     Filename C:\EACRips\Camille - 2006 - Le Fil\05 - Vous.wav
     Peak level 97.8 %
     Track quality 100.0 %
     Test CRC 7224DD82
     Copy CRC 7224DD82
     Accurately ripped (confidence 5)  [455DB661]
     Copy OK
Track  6
     Filename C:\EACRips\Camille - 2006 - Le Fil\06 - Baby Carni Bird.wav
     Peak level 97.1 %
     Track quality 100.0 %
     Test CRC BA512A9B
     Copy CRC BA512A9B
     Accurately ripped (confidence 5)  [45A13A34]
     Copy OK
Track  7
     Filename C:\EACRips\Camille - 2006 - Le Fil\07 - Pour que l№amour me quitte.wav
     Peak level 78.6 %
     Track quality 99.9 %
     Test CRC 31C5A6DA
     Copy CRC 31C5A6DA
     Accurately ripped (confidence 5)  [D37A8827]
     Copy OK
Track  8
     Filename C:\EACRips\Camille - 2006 - Le Fil\08 - Senza.wav
     Peak level 53.7 %
     Track quality 99.9 %
     Test CRC 7A5F8F2B
     Copy CRC 7A5F8F2B
     Accurately ripped (confidence 5)  [20598170]
     Copy OK
Track  9
     Filename C:\EACRips\Camille - 2006 - Le Fil\09 - Janine II.wav
     Peak level 95.6 %
     Track quality 100.0 %
     Test CRC EF4D4DCC
     Copy CRC EF4D4DCC
     Accurately ripped (confidence 5)  [22FA063F]
     Copy OK
Track 10
     Filename C:\EACRips\Camille - 2006 - Le Fil\10 - Vertige.wav
     Peak level 85.2 %
     Track quality 100.0 %
     Test CRC 7D945F03
     Copy CRC 7D945F03
     Accurately ripped (confidence 5)  [B6B676B8]
     Copy OK
Track 11
     Filename C:\EACRips\Camille - 2006 - Le Fil\11 - Au port.wav
     Peak level 100.0 %
     Track quality 100.0 %
     Test CRC 265BFA17
     Copy CRC 265BFA17
     Accurately ripped (confidence 5)  [AB121456]
     Copy OK
Track 12
     Filename C:\EACRips\Camille - 2006 - Le Fil\12 - Janine III.wav
     Peak level 92.3 %
     Track quality 100.0 %
     Test CRC 84BBB850
     Copy CRC 84BBB850
     Accurately ripped (confidence 5)  [7E10D736]
     Copy OK
Track 13
     Filename C:\EACRips\Camille - 2006 - Le Fil\13 - Pвle septembre.wav
     Peak level 98.1 %
     Track quality 99.9 %
     Test CRC 44BE15B1
     Copy CRC 44BE15B1
     Accurately ripped (confidence 5)  [1140D63D]
     Copy OK
Track 14
     Filename C:\EACRips\Camille - 2006 - Le Fil\14 - Rue de Mйnilmontant.wav
     Peak level 45.1 %
     Track quality 100.0 %
     Test CRC 5AE20C4F
     Copy CRC 5AE20C4F
     Accurately ripped (confidence 5)  [0A0E8C2A]
     Copy OK
Track 15
     Filename C:\EACRips\Camille - 2006 - Le Fil\15 - Quand je marche.wav
     Peak level 86.0 %
     Track quality 100.0 %
     Test CRC C7DED9CA
     Copy CRC C7DED9CA
     Accurately ripped (confidence 5)  [210ECF4D]
     Copy OK
Track 16
     Filename C:\EACRips\Camille - 2006 - Le Fil\16 - J№ai tort.wav
     Pre-gap length  0:00:46.81
     Peak level 98.6 %
     Track quality 100.0 %
     Test CRC 19839FCC
     Copy CRC 19839FCC
     Accurately ripped (confidence 5)  [7E02960A]
     Copy OK
Track 17
     Filename C:\EACRips\Camille - 2006 - Le Fil\17 - Jolie bruine.wav
     Peak level 100.0 %
     Track quality 100.0 %
     Test CRC A082FCB2
     Copy CRC A082FCB2
     Accurately ripped (confidence 5)  [3B9995DC]
     Copy OK
Track 18
     Filename C:\EACRips\Camille - 2006 - Le Fil\18 - Lumiиre.wav
     Pre-gap length  0:00:02.38
     Peak level 82.2 %
     Track quality 100.0 %
     Test CRC 81162FF9
     Copy CRC 81162FF9
     Accurately ripped (confidence 4)  [C6FFFE6C]
     Copy OK
All tracks accurately ripped
No errors occurred
End of status report
Код:
REM ACCURATERIPID 001e5760-01a3472f-e9117912
REM GENRE "Pop"
REM DATE 2006
REM DISCID E9117912
REM COMMENT "ExactAudioCopy v0.99pb4"
PERFORMER "Camille"
TITLE "Le Fil"
FILE "01. La jeune fille aux cheveux blancs.flac" WAVE
  TRACK 01 AUDIO
    TITLE "La jeune fille aux cheveux blancs"
    PERFORMER "Camille"
    INDEX 01 00:00:00
FILE "02. Ta douleur.flac" WAVE
  TRACK 02 AUDIO
    TITLE "Ta douleur"
    PERFORMER "Camille"
    INDEX 01 00:00:00
FILE "03. Assise.flac" WAVE
  TRACK 03 AUDIO
    TITLE "Assise"
    PERFORMER "Camille"
    INDEX 01 00:00:00
FILE "04. Janine I.flac" WAVE
  TRACK 04 AUDIO
    TITLE "Janine I"
    PERFORMER "Camille"
    INDEX 01 00:00:00
FILE "05. Vous.flac" WAVE
  TRACK 05 AUDIO
    TITLE "Vous"
    PERFORMER "Camille"
    INDEX 01 00:00:00
FILE "06. Baby Carni Bird.flac" WAVE
  TRACK 06 AUDIO
    TITLE "Baby Carni Bird"
    PERFORMER "Camille"
    INDEX 01 00:00:00
FILE "07. Pour que l_amour me quitte.flac" WAVE
  TRACK 07 AUDIO
    TITLE "Pour que l¹amour me quitte"
    PERFORMER "Camille"
    INDEX 01 00:00:00
FILE "08. Senza.flac" WAVE
  TRACK 08 AUDIO
    TITLE "Senza"
    PERFORMER "Camille"
    INDEX 01 00:00:00
FILE "09. Janine II.flac" WAVE
  TRACK 09 AUDIO
    TITLE "Janine II"
    PERFORMER "Camille"
    INDEX 01 00:00:00
FILE "10. Vertige.flac" WAVE
  TRACK 10 AUDIO
    TITLE "Vertige"
    PERFORMER "Camille"
    INDEX 01 00:00:00
FILE "11. Au port.flac" WAVE
  TRACK 11 AUDIO
    TITLE "Au port"
    PERFORMER "Camille"
    INDEX 01 00:00:00
FILE "12. Janine III.flac" WAVE
  TRACK 12 AUDIO
    TITLE "Janine III"
    PERFORMER "Camille"
    INDEX 01 00:00:00
FILE "13. Pale septembre.flac" WAVE
  TRACK 13 AUDIO
    TITLE "Pâle septembre"
    PERFORMER "Camille"
    INDEX 01 00:00:00
FILE "14. Rue de Menilmontant.flac" WAVE
  TRACK 14 AUDIO
    TITLE "Rue de Ménilmontant"
    PERFORMER "Camille"
    INDEX 01 00:00:00
FILE "15. Quand je marche.flac" WAVE
  TRACK 15 AUDIO
    TITLE "Quand je marche"
    PERFORMER "Camille"
    INDEX 01 00:00:00
  TRACK 16 AUDIO
    TITLE "J¹ai tort"
    PERFORMER "Camille"
    INDEX 00 03:46:72
FILE "16. J_ai tort.flac" WAVE
    INDEX 01 00:00:00
FILE "17. Jolie bruine.flac" WAVE
  TRACK 17 AUDIO
    TITLE "Jolie bruine"
    PERFORMER "Camille"
    INDEX 01 00:00:00
  TRACK 18 AUDIO
    TITLE "Lumière"
    PERFORMER "Camille"
    INDEX 00 02:12:64
FILE "18. Lumiere.flac" WAVE
    INDEX 01 00:00:00
Правила, инструкции, FAQ!!!
Торрент  Добавлен [01 янв 2020, 23:01] Скачать торрент Магнет ссылка
Скачать торрент
[ Размер 14.16 КБ / Просмотров 4 ]

Статус
Проверен 
 
Размер  323.67 МБ
Приватный: Нет (DHT включён)
.torrent скачан  1
 


     Отправить личное сообщение
   
Страница 1 из 1
Показать сообщения за:  Поле сортировки  
Начать новую тему Ответить на тему


Сейчас этот форум просматривают: нет зарегистрированных пользователей и гости: 0


Вы не можете начинать темы
Вы не можете отвечать на сообщения
Вы не можете редактировать свои сообщения
Вы не можете удалять свои сообщения
Вы не можете добавлять вложения

Перейти:  
cron