Начать новую тему Ответить на тему
Статистика раздачи
Размер: 235.2 МБ | Добавлен: 28 май 2020, 17:00 | Скачали: 0
Сидеров: 0  [0 байт/сек]    Личеров: 0  [0 байт/сек]
Пред. тема | След. тема 

Автор
Сообщение

СообщениеДобавлено: 28 май 2020, 17:00 

Ответить с цитатой 

FEDADEN - Broader (2009)
Производитель диска: Nacopajaz' Records [NCJCD 10] (France)
Жанр: IDM, Glitch, Abstract, Downtempo, Hip Hop
Год издания: 2009
Аудиокодек: OGG
Тип рипа: tracks
Битрейт аудио: ~500 kbps
Продолжительность: 01:09:00
Треклист:
01. Verdad
02. Danceur Inutile
03. Broader
04. Music Box
05. Melodie
06. Buralta
07. Iluvia
08. Key
09. Atlantis
10. The Perfume
11. Sour
12. Vulrures
13. Contrecoeur
Код:
Код:
Общее
Полное имя                               : E:\раздачи\Fedaden - Broader (2009)\01 - Verdad.ogg
Формат                                   : OGG
Размер файла                             : 18,5 Мбайт
Продолжительность                        : 4 м. 56 с.
Режим общего битрейта                    : Переменный
Общий поток                              : 523 Кбит/сек
Альбом                                   : Broader
Трек                                     : Verdad
Трек/Положение                           : 1/13
Трек/Всего                               : 13
Исполнитель                              : Fedaden
Жанр                                     : Electronic
Дата записи                              : 2009
ISRC                                     : FRP2P0900010
Аудио
Идентификатор                            : 369 (0x171)
Формат                                   : Vorbis
Параметр Floor формата                   : 1
Продолжительность                        : 4 м. 56 с.
Вид битрейта                             : Переменный
Битрейт                                  : 500 Кбит/сек
Каналы                                   : 2 канала
Частота                                  : 44,1 КГц
Метод сжатия                             : С потерями
Размер потока                            : 17,7 Мбайт (96%)
Библиотека кодирования                   : aoTuV 20110424 (UTC 2011-04-24)
Общее
Полное имя                               : E:\раздачи\Fedaden - Broader (2009)\02 - Danseur inutile (featuring Dominique A).ogg
Формат                                   : OGG
Размер файла                             : 16,9 Мбайт
Продолжительность                        : 4 м. 58 с.
Режим общего битрейта                    : Переменный
Общий поток                              : 475 Кбит/сек
Альбом                                   : Broader
Трек                                     : Danseur inutile (featuring Dominique A)
Трек/Положение                           : 2/13
Трек/Всего                               : 13
Исполнитель                              : Fedaden
Жанр                                     : Electronic
Дата записи                              : 2009
ISRC                                     : FRP2P0900060
Аудио
Идентификатор                            : 369 (0x171)
Формат                                   : Vorbis
Параметр Floor формата                   : 1
Продолжительность                        : 4 м. 58 с.
Вид битрейта                             : Переменный
Битрейт                                  : 500 Кбит/сек
Каналы                                   : 2 канала
Частота                                  : 44,1 КГц
Метод сжатия                             : С потерями
Размер потока                            : 17,8 Мбайт
Библиотека кодирования                   : aoTuV 20110424 (UTC 2011-04-24)
Общее
Полное имя                               : E:\раздачи\Fedaden - Broader (2009)\03 - Broader.ogg
Формат                                   : OGG
Размер файла                             : 19,3 Мбайт
Продолжительность                        : 5 м. 30 с.
Режим общего битрейта                    : Переменный
Общий поток                              : 489 Кбит/сек
Альбом                                   : Broader
Трек                                     : Broader
Трек/Положение                           : 3/13
Трек/Всего                               : 13
Исполнитель                              : Fedaden
Жанр                                     : Electronic
Дата записи                              : 2009
ISRC                                     : FRP2P0900070
Аудио
Идентификатор                            : 369 (0x171)
Формат                                   : Vorbis
Параметр Floor формата                   : 1
Продолжительность                        : 5 м. 30 с.
Вид битрейта                             : Переменный
Битрейт                                  : 500 Кбит/сек
Каналы                                   : 2 канала
Частота                                  : 44,1 КГц
Метод сжатия                             : С потерями
Размер потока                            : 19,7 Мбайт
Библиотека кодирования                   : aoTuV 20110424 (UTC 2011-04-24)
Общее
Полное имя                               : E:\раздачи\Fedaden - Broader (2009)\04 - Music box.ogg
Формат                                   : OGG
Размер файла                             : 19,6 Мбайт
Продолжительность                        : 5 м. 13 с.
Режим общего битрейта                    : Переменный
Общий поток                              : 526 Кбит/сек
Альбом                                   : Broader
Трек                                     : Music box
Трек/Положение                           : 4/13
Трек/Всего                               : 13
Исполнитель                              : Fedaden
Жанр                                     : Electronic
Дата записи                              : 2009
ISRC                                     : FRP2P0900080
Аудио
Идентификатор                            : 369 (0x171)
Формат                                   : Vorbis
Параметр Floor формата                   : 1
Продолжительность                        : 5 м. 13 с.
Вид битрейта                             : Переменный
Битрейт                                  : 500 Кбит/сек
Каналы                                   : 2 канала
Частота                                  : 44,1 КГц
Метод сжатия                             : С потерями
Размер потока                            : 18,7 Мбайт (95%)
Библиотека кодирования                   : aoTuV 20110424 (UTC 2011-04-24)
Общее
Полное имя                               : E:\раздачи\Fedaden - Broader (2009)\05 - Mélodie.ogg
Формат                                   : OGG
Размер файла                             : 9,57 Мбайт
Продолжительность                        : 3 м. 11 с.
Режим общего битрейта                    : Переменный
Общий поток                              : 420 Кбит/сек
Альбом                                   : Broader
Трек                                     : Mélodie
Трек/Положение                           : 5/13
Трек/Всего                               : 13
Исполнитель                              : Fedaden
Жанр                                     : Electronic
Дата записи                              : 2009
ISRC                                     : FRP2P0900090
Аудио
Идентификатор                            : 369 (0x171)
Формат                                   : Vorbis
Параметр Floor формата                   : 1
Продолжительность                        : 3 м. 11 с.
Вид битрейта                             : Переменный
Битрейт                                  : 500 Кбит/сек
Каналы                                   : 2 канала
Частота                                  : 44,1 КГц
Метод сжатия                             : С потерями
Размер потока                            : 11,4 Мбайт
Библиотека кодирования                   : aoTuV 20110424 (UTC 2011-04-24)
Общее
Полное имя                               : E:\раздачи\Fedaden - Broader (2009)\06 - Buralta.ogg
Формат                                   : OGG
Размер файла                             : 18,3 Мбайт
Продолжительность                        : 4 м. 54 с.
Режим общего битрейта                    : Переменный
Общий поток                              : 520 Кбит/сек
Альбом                                   : Broader
Трек                                     : Buralta
Трек/Положение                           : 6/13
Трек/Всего                               : 13
Исполнитель                              : Fedaden
Жанр                                     : Electronic
Дата записи                              : 2009
ISRC                                     : FRP2P0900100
Аудио
Идентификатор                            : 369 (0x171)
Формат                                   : Vorbis
Параметр Floor формата                   : 1
Продолжительность                        : 4 м. 54 с.
Вид битрейта                             : Переменный
Битрейт                                  : 500 Кбит/сек
Каналы                                   : 2 канала
Частота                                  : 44,1 КГц
Метод сжатия                             : С потерями
Размер потока                            : 17,6 Мбайт (96%)
Библиотека кодирования                   : aoTuV 20110424 (UTC 2011-04-24)
Общее
Полное имя                               : E:\раздачи\Fedaden - Broader (2009)\07 - Lluvia.ogg
Формат                                   : OGG
Размер файла                             : 19,2 Мбайт
Продолжительность                        : 4 м. 42 с.
Режим общего битрейта                    : Переменный
Общий поток                              : 572 Кбит/сек
Альбом                                   : Broader
Трек                                     : Lluvia
Трек/Положение                           : 7/13
Трек/Всего                               : 13
Исполнитель                              : Fedaden
Жанр                                     : Electronic
Дата записи                              : 2009
ISRC                                     : FRP2P0900110
Аудио
Идентификатор                            : 369 (0x171)
Формат                                   : Vorbis
Параметр Floor формата                   : 1
Продолжительность                        : 4 м. 42 с.
Вид битрейта                             : Переменный
Битрейт                                  : 500 Кбит/сек
Каналы                                   : 2 канала
Частота                                  : 44,1 КГц
Метод сжатия                             : С потерями
Размер потока                            : 16,8 Мбайт (87%)
Библиотека кодирования                   : aoTuV 20110424 (UTC 2011-04-24)
Общее
Полное имя                               : E:\раздачи\Fedaden - Broader (2009)\08 - Key.ogg
Формат                                   : OGG
Размер файла                             : 24,2 Мбайт
Продолжительность                        : 6 м. 23 с.
Режим общего битрейта                    : Переменный
Общий поток                              : 528 Кбит/сек
Альбом                                   : Broader
Трек                                     : Key
Трек/Положение                           : 8/13
Трек/Всего                               : 13
Исполнитель                              : Fedaden
Жанр                                     : Electronic
Дата записи                              : 2009
ISRC                                     : FRP2P0900120
Аудио
Идентификатор                            : 369 (0x171)
Формат                                   : Vorbis
Параметр Floor формата                   : 1
Продолжительность                        : 6 м. 23 с.
Вид битрейта                             : Переменный
Битрейт                                  : 500 Кбит/сек
Каналы                                   : 2 канала
Частота                                  : 44,1 КГц
Метод сжатия                             : С потерями
Размер потока                            : 22,9 Мбайт (95%)
Библиотека кодирования                   : aoTuV 20110424 (UTC 2011-04-24)
Общее
Полное имя                               : E:\раздачи\Fedaden - Broader (2009)\09 - Atlantis.ogg
Формат                                   : OGG
Размер файла                             : 3,69 Мбайт
Продолжительность                        : 1 м. 16 с.
Режим общего битрейта                    : Переменный
Общий поток                              : 407 Кбит/сек
Альбом                                   : Broader
Трек                                     : Atlantis
Трек/Положение                           : 9/13
Трек/Всего                               : 13
Исполнитель                              : Fedaden
Жанр                                     : Electronic
Дата записи                              : 2009
ISRC                                     : FRP2P0900130
Аудио
Идентификатор                            : 369 (0x171)
Формат                                   : Vorbis
Параметр Floor формата                   : 1
Продолжительность                        : 1 м. 16 с.
Вид битрейта                             : Переменный
Битрейт                                  : 500 Кбит/сек
Каналы                                   : 2 канала
Частота                                  : 44,1 КГц
Метод сжатия                             : С потерями
Размер потока                            : 4,54 Мбайт
Библиотека кодирования                   : aoTuV 20110424 (UTC 2011-04-24)
Общее
Полное имя                               : E:\раздачи\Fedaden - Broader (2009)\10 - The perfume.ogg
Формат                                   : OGG
Размер файла                             : 21,1 Мбайт
Продолжительность                        : 6 м. 13 с.
Режим общего битрейта                    : Переменный
Общий поток                              : 475 Кбит/сек
Альбом                                   : Broader
Трек                                     : The perfume
Трек/Положение                           : 10/13
Трек/Всего                               : 13
Исполнитель                              : Fedaden
Жанр                                     : Electronic
Дата записи                              : 2009
ISRC                                     : FRP2P0900140
Аудио
Идентификатор                            : 369 (0x171)
Формат                                   : Vorbis
Параметр Floor формата                   : 1
Продолжительность                        : 6 м. 13 с.
Вид битрейта                             : Переменный
Битрейт                                  : 500 Кбит/сек
Каналы                                   : 2 канала
Частота                                  : 44,1 КГц
Метод сжатия                             : С потерями
Размер потока                            : 22,2 Мбайт
Библиотека кодирования                   : aoTuV 20110424 (UTC 2011-04-24)
Общее
Полное имя                               : E:\раздачи\Fedaden - Broader (2009)\11 - Sour.ogg
Формат                                   : OGG
Размер файла                             : 18,3 Мбайт
Продолжительность                        : 4 м. 54 с.
Режим общего битрейта                    : Переменный
Общий поток                              : 522 Кбит/сек
Альбом                                   : Broader
Трек                                     : Sour
Трек/Положение                           : 11/13
Трек/Всего                               : 13
Исполнитель                              : Fedaden
Жанр                                     : Electronic
Дата записи                              : 2009
ISRC                                     : FRP2P0900150
Аудио
Идентификатор                            : 369 (0x171)
Формат                                   : Vorbis
Параметр Floor формата                   : 1
Продолжительность                        : 4 м. 54 с.
Вид битрейта                             : Переменный
Битрейт                                  : 500 Кбит/сек
Каналы                                   : 2 канала
Частота                                  : 44,1 КГц
Метод сжатия                             : С потерями
Размер потока                            : 17,5 Мбайт (96%)
Библиотека кодирования                   : aoTuV 20110424 (UTC 2011-04-24)
Общее
Полное имя                               : E:\раздачи\Fedaden - Broader (2009)\12 - Vultures.ogg
Формат                                   : OGG
Размер файла                             : 17,8 Мбайт
Продолжительность                        : 4 м. 58 с.
Режим общего битрейта                    : Переменный
Общий поток                              : 499 Кбит/сек
Альбом                                   : Broader
Трек                                     : Vultures
Трек/Положение                           : 12/13
Трек/Всего                               : 13
Исполнитель                              : Fedaden
Жанр                                     : Electronic
Дата записи                              : 2009
ISRC                                     : FRP2P0900160
Аудио
Идентификатор                            : 369 (0x171)
Формат                                   : Vorbis
Параметр Floor формата                   : 1
Продолжительность                        : 4 м. 58 с.
Вид битрейта                             : Переменный
Битрейт                                  : 500 Кбит/сек
Каналы                                   : 2 канала
Частота                                  : 44,1 КГц
Метод сжатия                             : С потерями
Размер потока                            : 17,8 Мбайт
Библиотека кодирования                   : aoTuV 20110424 (UTC 2011-04-24)
Общее
Полное имя                               : E:\раздачи\Fedaden - Broader (2009)\13 - Contrecoeur.ogg
Формат                                   : OGG
Размер файла                             : 28,7 Мбайт
Продолжительность                        : 11 м.
Режим общего битрейта                    : Переменный
Общий поток                              : 341 Кбит/сек
Альбом                                   : Broader
Трек                                     : Contrecoeur
Трек/Положение                           : 13/13
Трек/Всего                               : 13
Исполнитель                              : Fedaden
Жанр                                     : Electronic
Дата записи                              : 2009
ISRC                                     : FRP2P0900170
Аудио
Идентификатор                            : 369 (0x171)
Формат                                   : Vorbis
Параметр Floor формата                   : 1
Продолжительность                        : 11 м.
Вид битрейта                             : Переменный
Битрейт                                  : 500 Кбит/сек
Каналы                                   : 2 канала
Частота                                  : 44,1 КГц
Метод сжатия                             : С потерями
Размер потока                            : 42,1 Мбайт
Библиотека кодирования                   : aoTuV 20110424 (UTC 2011-04-24)
Общее
Полное имя                               : E:\раздачи\Fedaden - Broader (2009)\cover.jpg
Формат                                   : JPEG
Размер файла                             : 21,0 Кбайт
Изображения
Формат                                   : JPEG
Ширина                                   : 400 пикселей
Высота                                   : 400 пикселей
Цветовое пространство                    : YUV
Субдискретизация насыщенности            : 4:2:0
Битовая глубина                          : 8 бит
Метод сжатия                             : С потерями
Размер потока                            : 21,0 Кбайт (100%)
[/spoiler]
Правила, инструкции, FAQ!!!
Торрент  Добавлен [28 май 2020, 17:00] Скачать торрент Магнет ссылка
Скачать торрент
[ Размер 19.47 КБ / Просмотров 9 ]

Статус
Проверен 
 
Размер  235.2 МБ
Приватный: Нет (DHT включён)
.torrent скачан  0
 


     Отправить личное сообщение
   
Страница 1 из 1
Показать сообщения за:  Поле сортировки  
Начать новую тему Ответить на тему


Сейчас этот форум просматривают: нет зарегистрированных пользователей и гости: 0


Вы не можете начинать темы
Вы не можете отвечать на сообщения
Вы не можете редактировать свои сообщения
Вы не можете удалять свои сообщения
Вы не можете добавлять вложения

Перейти:  
cron