Начать новую тему Ответить на тему
Статистика раздачи
Размер: 429.41 МБ | Добавлен: 26 июн 2020, 17:17 | Скачали: 0
Сидеров: 0  [0 байт/сек]    Личеров: 0  [0 байт/сек]
Пред. тема | След. тема 

Автор
Сообщение

СообщениеДобавлено: 26 июн 2020, 17:17 

Ответить с цитатой 

Mnemonic / Identifikationsstörung
Жанр: IDM, Electro, Industrial
Страна-производитель диска: Belgium
Год издания диска: 2001
Издатель (лейбл): Alfa Matrix
Номер по каталогу: AM-1002CD
Страна: Belgium
Аудио кодек: FLAC (*.flac)
Тип рипа: image+.cue
Битрейт аудио: lossless
Продолжительность: 01:05:59
Источник (релизер): Рип с личного СД
Наличие сканов в содержимом раздачи: да
Треклист:
01. Human Fragments 5:00
02. Dopetunnel 5:50
03. Shadowchild 5:53
04. Identifikationsstörung 4:06
05. Stay 4:27
06. Pupertäre Pseudodepression 4:28
07. Outsider 5:02
08. Labyrinth 5:28
09. Frustkompensation 3:03
10. Subconscious 5:12
11. Amnesie 4:04
12. Human Fragments (Ammo Remix) 3:10
13. Frustkompensation (Somatic Responses Remix) 5:28
14. Labyrinth (Implant Remix) 4:42
Код:
Exact Audio Copy V0.99 prebeta 5 from 4. May 2009
Отчёт EAC об извлечении, выполненном 19. сентября 2010, 11:56
Mnemonic / Identifikationsstцrung
Дисковод: Optiarc DVD RW AD-7201S   Adapter: 2  ID: 1
Режим чтения                 : Достоверность
Использование точного потока : Да
Отключение кэша аудио        : Да
Использование указателей C2  : Нет
Коррекция смещения при чтении                     : 48
Способность читать области Lead-in и Lead-out     : Нет
Заполнение пропущенных сэмплов тишиной            : Да
Удаление блоков с тишиной в начале и конце        : Нет
При вычислениях CRC использовались нулевые сэмплы : Да
Интерфейс                                         : Встроенный Win32-интерфейс для Win
NT/2000
Выходной формат : Внутренние WAV-операции
Формат сэмплов  : 44.100 Гц; 16 бит; стерео
TOC извлечённого CD
     Трек |   Старт  | Длительность | Начальный сектор | Конечный сектор
    ---------------------------------------------------------------------
       1  |  0:00.00 |    5:00.45   |           0      |      22544
       2  |  5:00.45 |    5:50.15   |       22545      |      48809
       3  | 10:50.60 |    5:53.65   |       48810      |      75349
       4  | 16:44.50 |    4:06.59   |       75350      |      93858
       5  | 20:51.34 |    4:27.02   |       93859      |     113885
       6  | 25:18.36 |    4:28.09   |      113886      |     133994
       7  | 29:46.45 |    5:02.63   |      133995      |     156707
       8  | 34:49.33 |    5:28.62   |      156708      |     181369
       9  | 40:18.20 |    3:03.32   |      181370      |     195126
      10  | 43:21.52 |    5:12.00   |      195127      |     218526
      11  | 48:33.52 |    4:04.47   |      218527      |     236873
      12  | 52:38.24 |    3:10.31   |      236874      |     251154
      13  | 55:48.55 |    5:28.11   |      251155      |     275765
      14  | 61:16.66 |    4:42.21   |      275766      |     296936
Характеристики диапазона извлечения и сообщения об ошибках
Выбранный диапазон
     Имя файла D:\Раздачи\Mnemonic - Identifikationsstorung\Mnemonic -
Identifikationsstцrung.wav
     Пиковый уровень 96.6 %
     Качество диапазона 100.0 %
     CRC теста 576F61D7
     CRC копии 576F61D7
     Копирование... OK
Ошибок не произошло
Конец отчёта
Код:
Started at: воскресенье, 19. 09. 2010. - 12:15.45
1 file found
1 -===- D:\Раздачи\Mnemonic - Identifikationsstorung\Mnemonic - Identifikationsstцrung.flac
  Extracted successfully
  Conclusion: this track is CDDA with probability 100%
  Tempfile successfully deleted.
Finished at: воскресенье, 19. 09. 2010. - 12:22.55 (operation time: 0:07.10)
Правила, инструкции, FAQ!!!
Торрент  Добавлен [26 июн 2020, 17:17] Скачать торрент Магнет ссылка
Скачать торрент
[ Размер 17.51 КБ / Просмотров 12 ]

Статус
Проверен 
 
Размер  429.41 МБ
Приватный: Нет (DHT включён)
.torrent скачан  0
 


     Отправить личное сообщение
   
Страница 1 из 1
Показать сообщения за:  Поле сортировки  
Начать новую тему Ответить на тему


Сейчас этот форум просматривают: нет зарегистрированных пользователей и гости: 0


Вы не можете начинать темы
Вы не можете отвечать на сообщения
Вы не можете редактировать свои сообщения
Вы не можете удалять свои сообщения
Вы не можете добавлять вложения

Перейти:  
cron