Начать новую тему Ответить на тему
Статистика раздачи
Размер: 664.18 МБ | Добавлен: 26 июн 2020, 17:02 | Скачали: 0
Сидеров: 0  [0 байт/сек]    Личеров: 0  [0 байт/сек]
Пред. тема | След. тема 

Автор
Сообщение

СообщениеДобавлено: 26 июн 2020, 17:02 

Ответить с цитатой 

(IDM, Electro, Industrial) Chiasm - Disorder + Reform
Жанр: IDM, Electro, Industrial
Производитель диска: EU
Лейбл Cop International
Аудио кодек: FLAC
Тип рипа: image+.cue
Битрейт аудио: lossless
Треклист
01 Formula
02 Chiasm
03 Transparent
04 Disorder
05 Fight
06 Liquefy
07 Isolated
08 Cold
09 Enemy
10 Someone
Код:
Exact Audio Copy V0.99 prebeta 5 from 4. May 2009
EAC extraction logfile from 2. July 2010, 15:57
Chiasm / Disorder
Used drive  : Optiarc DVD RW AD-7173A   Adapter: 0  ID: 0
Read mode               : Secure
Utilize accurate stream : Yes
Defeat audio cache      : Yes
Make use of C2 pointers : No
Read offset correction                      : 48
Overread into Lead-In and Lead-Out          : No
Fill up missing offset samples with silence : Yes
Delete leading and trailing silent blocks   : No
Null samples used in CRC calculations       : Yes
Used interface                              : Native Win32 interface for Win NT & 2000
Used output format              : User Defined Encoder
Selected bitrate                : 1024 kBit/s
Quality                         : High
Add ID3 tag                     : No
Command line compressor         : C:\Program Files\Exact Audio Copy\Flac\flac.exe
Additional command line options : -8 -V -T "ARTIST=%a" -T "TITLE=%t" -T "ALBUM=%g" -T "DATE=%y" -T "TRACKNUMBER=%n" -T "GENRE=%m" -T "COMMENT=EAC FLAC -8" %s
TOC of the extracted CD
     Track |   Start  |  Length  | Start sector | End sector
    ---------------------------------------------------------
        1  |  0:00.00 |  4:13.00 |         0    |    18974
        2  |  4:13.00 |  5:44.25 |     18975    |    44799
        3  |  9:57.25 |  4:38.50 |     44800    |    65699
        4  | 14:36.00 |  5:00.25 |     65700    |    88224
        5  | 19:36.25 |  5:21.00 |     88225    |   112299
        6  | 24:57.25 |  4:34.62 |    112300    |   132911
        7  | 29:32.12 |  5:15.63 |    132912    |   156599
        8  | 34:48.00 |  4:59.00 |    156600    |   179024
        9  | 39:47.00 |  5:20.00 |    179025    |   203024
       10  | 45:07.00 |  7:01.32 |    203025    |   234631
Range status and errors
Selected range
     Filename D:\EAC\Temp\Chiasm - Disorder.wav
     Peak level 99.3 %
     Range quality 100.0 %
     Test CRC FA545CC4
     Copy CRC FA545CC4
     Copy OK
No errors occurred
AccurateRip summary
Track  1  accurately ripped (confidence 7)  [C3028A6F]
Track  2  accurately ripped (confidence 7)  [EC1818E7]
Track  3  accurately ripped (confidence 7)  [08F0205A]
Track  4  accurately ripped (confidence 7)  [A68F559A]
Track  5  accurately ripped (confidence 7)  [E0F65803]
Track  6  accurately ripped (confidence 7)  [D92A6BE3]
Track  7  accurately ripped (confidence 7)  [35BF3FD8]
Track  8  accurately ripped (confidence 7)  [25AD3942]
Track  9  accurately ripped (confidence 7)  [E3C1C8A8]
Track 10  accurately ripped (confidence 7)  [2405D77B]
All tracks accurately ripped
End of status report
Треклист
01 Deny
02 Soulprint
03 Unity
04 The Caffeine Cycle
05 Reform
06 A Section of Time
07 Deceivers
08 Won
09 Incubate
10 Extinguish
Код:
Exact Audio Copy V0.99 prebeta 5 from 4. May 2009
EAC extraction logfile from 2. July 2010, 17:18
Chiasm  / Reform
Used drive  : Optiarc DVD RW AD-7173A   Adapter: 0  ID: 0
Read mode               : Secure
Utilize accurate stream : Yes
Defeat audio cache      : Yes
Make use of C2 pointers : No
Read offset correction                      : 48
Overread into Lead-In and Lead-Out          : No
Fill up missing offset samples with silence : Yes
Delete leading and trailing silent blocks   : No
Null samples used in CRC calculations       : Yes
Used interface                              : Native Win32 interface for Win NT & 2000
Used output format              : User Defined Encoder
Selected bitrate                : 1024 kBit/s
Quality                         : High
Add ID3 tag                     : No
Command line compressor         : C:\Program Files\Exact Audio Copy\Flac\flac.exe
Additional command line options : -8 -V -T "ARTIST=%a" -T "TITLE=%t" -T "ALBUM=%g" -T "DATE=%y" -T "TRACKNUMBER=%n" -T "GENRE=%m" -T "COMMENT=EAC FLAC -8" %s
TOC of the extracted CD
     Track |   Start  |  Length  | Start sector | End sector
    ---------------------------------------------------------
        1  |  0:00.00 |  3:27.33 |         0    |    15557
        2  |  3:27.33 |  4:54.06 |     15558    |    37613
        3  |  8:21.39 |  3:58.37 |     37614    |    55500
        4  | 12:20.01 |  5:02.35 |     55501    |    78185
        5  | 17:22.36 |  5:06.38 |     78186    |   101173
        6  | 22:28.74 |  5:15.44 |    101174    |   124842
        7  | 27:44.43 |  3:48.57 |    124843    |   141999
        8  | 31:33.25 |  4:53.25 |    142000    |   163999
        9  | 36:26.50 |  5:01.25 |    164000    |   186599
       10  | 41:28.00 |  5:08.19 |    186600    |   209718
Range status and errors
Selected range
     Filename D:\EAC\Temp\Chiasm  - Reform.wav
     Peak level 98.6 %
     Range quality 100.0 %
     Test CRC AB8A0944
     Copy CRC AB8A0944
     Copy OK
No errors occurred
AccurateRip summary
Track  1  accurately ripped (confidence 3)  [E41F6CFB]
Track  2  accurately ripped (confidence 3)  [7F3E124A]
Track  3  accurately ripped (confidence 3)  [9C2AFD4B]
Track  4  accurately ripped (confidence 3)  [86A24175]
Track  5  accurately ripped (confidence 3)  [8BF2B92E]
Track  6  accurately ripped (confidence 3)  [262DCF8B]
Track  7  accurately ripped (confidence 3)  [D60518B2]
Track  8  accurately ripped (confidence 3)  [154DE9DD]
Track  9  accurately ripped (confidence 3)  [E4B18190]
Track 10  accurately ripped (confidence 3)  [85E522DE]
All tracks accurately ripped
End of status report
Правила, инструкции, FAQ!!!
Торрент  Добавлен [26 июн 2020, 17:02] Скачать торрент Магнет ссылка
Скачать торрент
[ Размер 13.9 КБ / Просмотров 2 ]

Статус
Проверен 
 
Размер  664.18 МБ
Приватный: Нет (DHT включён)
.torrent скачан  0
 


     Отправить личное сообщение
   
Страница 1 из 1
Показать сообщения за:  Поле сортировки  
Начать новую тему Ответить на тему


Сейчас этот форум просматривают: нет зарегистрированных пользователей и гости: 0


Вы не можете начинать темы
Вы не можете отвечать на сообщения
Вы не можете редактировать свои сообщения
Вы не можете удалять свои сообщения
Вы не можете добавлять вложения

Перейти:  
cron