Начать новую тему Ответить на тему
Статистика раздачи
Размер: 343.36 МБ | Добавлен: 26 июн 2020, 20:12 | Скачали: 0
Сидеров: 0  [0 байт/сек]    Личеров: 0  [0 байт/сек]
Пред. тема | След. тема 

Автор
Сообщение

СообщениеДобавлено: 26 июн 2020, 20:12 

Ответить с цитатой 

In Strict Confidence - Exile Paradise [The Hecq Destruxxion]
Жанр: IDM, Electro, Ambient
Год выпуска диска: 2007
Производитель диска: Germany
Аудио кодек: FLAC
Тип рипа: image+.cue
Битрейт аудио: lossless
Трэклист:
1 The Harder They Come... (Destroyed) (1:44)
Voice - Sina Hübner
2 Promised Land (Going Far Edit) (6:09)
3 Forbidden Fruit (Tragic Loss Edit) (5:23)
4 Fading Light (Neon Remake) (3:51)
5 Wintermoon (Silver Trace) (4:18)
6 Manchmal Redest Du Im Schlaf (Still Sleeping) (5:13)
Backing Vocals - Andy Krüger
7 Regicide (Dissinger Miqs) (3:20)
8 Der Teufel (Simplex Warchant) (5:15)
9 Away From Here (Removed Version) (4:25)
10 In Favilla (Ignis Spiritus Version) (11:23)
11 Something To Remember (Revisited) (5:34)
12 ...The Harder They Fall (Cracked) (1:41)
Voice - Sina Hübner
Доп. информация:
Exact Audio Copy V0.99 prebeta 4 from 23. January 2008
Отчёт EAC об извлечении, выполненном 3. октября 2008, 0:02
In Strict Confidence / Exile Paradise HECQ Destruxxion
Дисковод: _NEC DVD+-RW ND-6650A Adapter: 2 ID: 0
Режим чтения : Достоверность
Использование точного потока : Да
Отключение кэша аудио : Да
Использование указателей C2 : Нет
Коррекция смещения при чтении : 48
Способность читать области Lead-in и Lead-out : Нет
Заполнение пропущенных сэмплов тишиной : Да
Удаление блоков с тишиной в начале и конце : Нет
При вычислениях CRC использовались нулевые сэмплы : Да
Интерфейс : Установленный внешний ASPI-интерфейс
Выходной формат : Пользовательский кодировщик
Выбранный битрейт : 1024 kBit/s
Качество : Высокий
Добавление ID3-тэга : Нет
Утилита сжатия : C:\Program Files\Exact Audio Copy2\Flac\flac.exe
Дополнительные параметры : -8 -V -T "ARTIST=%a" -T "TITLE=%t" -T "ALBUM=%g" -T "DATE=%y" -T "TRACKNUMBER=%n" -T "GENRE=%m" -T "COMMENT=%e" %s -o %d
TOC извлечённого CD
Трек | Старт | Длительность | Начальный сектор | Конечный сектор
---------------------------------------------------------------------
1 | 0:00.00 | 1:44.49 | 0 | 7848
2 | 1:44.49 | 6:09.58 | 7849 | 35581
3 | 7:54.32 | 5:23.28 | 35582 | 59834
4 | 13:17.60 | 3:51.63 | 59835 | 77222
5 | 17:09.48 | 4:18.56 | 77223 | 96628
6 | 21:28.29 | 5:13.26 | 96629 | 120129
7 | 26:41.55 | 3:20.24 | 120130 | 135153
8 | 30:02.04 | 5:15.32 | 135154 | 158810
9 | 35:17.36 | 4:25.58 | 158811 | 178743
10 | 39:43.19 | 11:23.21 | 178744 | 229989
11 | 51:06.40 | 5:34.68 | 229990 | 255107
12 | 56:41.33 | 1:41.18 | 255108 | 262700
Характеристики диапазона извлечения и сообщения об ошибках
Выбранный диапазон
Имя файла C:\EAC\In Strict Confidence - Exile Paradise HECQ Destruxxion.wav
Пиковый уровень 98.8 %
Качество диапазона 100.0 %
CRC теста 5114B5DA
CRC копии 5114B5DA
Копирование... OK
Ошибок не произошло
Конец отчёта
Label: Minuswelt Musikfabrik
Catalog#: minus 034
Format: CD, Album, Limited Edition, Steelbox
Credits: Lyrics By [Support] - Inga Göttsch
Mastered By - John Cremer
Mixed By, Recorded By - Olaf Wollschläger
Remix - Hecq
Written-By - Antje Schulz , Dennis Ostermann , Jörg Schelte , Stefan Vesper
Notes: Manipulated versions. Limited collectors edition of 1111 copies.
Правила, инструкции, FAQ!!!
Торрент  Добавлен [26 июн 2020, 20:12] Скачать торрент Магнет ссылка
Скачать торрент
[ Размер 14.1 КБ / Просмотров 9 ]

Статус
Проверен 
 
Размер  343.36 МБ
Приватный: Нет (DHT включён)
.torrent скачан  0
 


     Отправить личное сообщение
   
Страница 1 из 1
Показать сообщения за:  Поле сортировки  
Начать новую тему Ответить на тему


Сейчас этот форум просматривают: нет зарегистрированных пользователей и гости: 0


Вы не можете начинать темы
Вы не можете отвечать на сообщения
Вы не можете редактировать свои сообщения
Вы не можете удалять свои сообщения
Вы не можете добавлять вложения

Перейти:  
cron