Начать новую тему Ответить на тему
Статистика раздачи
Размер: 145.21 МБ | Добавлен: 28 май 2020, 16:43 | Скачали: 0
Сидеров: 0  [0 байт/сек]    Личеров: 0  [0 байт/сек]
Пред. тема | След. тема 

Автор
Сообщение

СообщениеДобавлено: 28 май 2020, 16:43 

Ответить с цитатой 

To Travel Without Any Certain Destination / To Travel Without Any Certain Destination
Жанр: IDM, Ambient, Tribal
Год издания: 2012
Аудиокодек: MP3
Тип рипа: tracks
Битрейт аудио: 320 kbps
Продолжительность: 01:03:07
Наличие сканов в содержимом раздачи: нет
Треклист:
01. Ruins Of A Naked City [3:32]
02. Stranger In Common Places [5:55]
03. By No Means (Of Transportation) Necessary [5:48]
04. The Rest [3:12]
05. Urban Isolation [4:08]
06. Going To Places You're Not Supposed To Go [5:31]
07. While Others Dream [4:21]
08. Let The Night Embraced By Fire [4:24]
09. Guided By City Vibes [4:53]
10. Being Lost [5:39]
11. She Lures Me Into Another Universe [3:03]
12. Let The Night Embraced By Fire (Contagious Orgasm Remix) [4:29]
13. Going To Places You Are Not Supposed To Go (L'Ombre Remix) [4:06]
14. Let The Night Embraced By Fire (Hydrone Remix) [4:04]
Код:
Код:
X Lossless Decoder version 20120609 (141.0)
XLD extraction logfile from 2012-06-29 12:01:44 -0700
To Travel Without Any Certain Destination / To Travel Without Any Certain Destination
Used drive : MATSHITA DVD-R   UJ-898 (revision HC10)
Ripper mode             : XLD Secure Ripper
Disable audio cache     : OK for the drive with a cache less than 1375KiB
Make use of C2 pointers : NO
Read offset correction  : 102
Max retry count         : 100
Gap status              : Analyzed, Appended (except HTOA)
TOC of the extracted CD
     Track |   Start  |  Length  | Start sector | End sector
    ---------------------------------------------------------
        1  | 00:00:00 | 03:32:00 |         0    |    15899
        2  | 03:32:00 | 05:54:51 |     15900    |    42500
        3  | 09:26:51 | 05:48:00 |     42501    |    68600
        4  | 15:14:51 | 03:12:00 |     68601    |    83000
        5  | 18:26:51 | 04:08:01 |     83001    |   101601
        6  | 22:34:52 | 05:31:25 |    101602    |   126451
        7  | 28:06:02 | 04:21:33 |    126452    |   146059
        8  | 32:27:35 | 04:24:35 |    146060    |   165894
        9  | 36:51:70 | 04:53:25 |    165895    |   187894
       10  | 41:45:20 | 05:38:63 |    187895    |   213307
       11  | 47:24:08 | 03:03:33 |    213308    |   227065
       12  | 50:27:41 | 04:29:29 |    227066    |   247269
       13  | 54:56:70 | 04:05:71 |    247270    |   265715
       14  | 59:02:66 | 04:04:25 |    265716    |   284040
AccurateRip Summary
    Disc not found in AccurateRip DB.
All Tracks
    Album gain               : -7.67 dB
    Peak                     : 1.000000
    Statistics
        Read error                           : 0
        Jitter error (maybe fixed)           : 0
        Retry sector count                   : 0
        Damaged sector count                 : 0
Track 01
    Filename : /Users/bc/cdrips/To Travel Without Any Certain Destination - To Travel Without Any Certain Destination (2012) [FLAC]/01 Ruins Of A Naked City.flac
    Pre-gap length : 00:02:00
    Track gain               : -8.76 dB
    Peak                     : 0.999969
    CRC32 hash (test run)    : 187D762F
    CRC32 hash               : 187D762F
    CRC32 hash (skip zero)   : 41CDA992
    AccurateRip v1 signature : 527E898F
    AccurateRip v2 signature : 31532D72
        ->Track not present in AccurateRip database.
    Statistics
        Read error                           : 0
        Jitter error (maybe fixed)           : 0
        Retry sector count                   : 0
        Damaged sector count                 : 0
Track 02
    Filename : /Users/bc/cdrips/To Travel Without Any Certain Destination - To Travel Without Any Certain Destination (2012) [FLAC]/02 Stranger In Common Places.flac
    Track gain               : -8.70 dB
    Peak                     : 1.000000
    CRC32 hash (test run)    : EED214C4
    CRC32 hash               : EED214C4
    CRC32 hash (skip zero)   : E977A959
    AccurateRip v1 signature : 6B2B9CAB
    AccurateRip v2 signature : D986076B
        ->Track not present in AccurateRip database.
    Statistics
        Read error                           : 0
        Jitter error (maybe fixed)           : 0
        Retry sector count                   : 0
        Damaged sector count                 : 0
Track 03
    Filename : /Users/bc/cdrips/To Travel Without Any Certain Destination - To Travel Without Any Certain Destination (2012) [FLAC]/03 By No Means (Of Transportation) Necessary.flac
    Track gain               : -6.44 dB
    Peak                     : 0.977020
    CRC32 hash (test run)    : 63972B85
    CRC32 hash               : 63972B85
    CRC32 hash (skip zero)   : 44838ED0
    AccurateRip v1 signature : 97FEA160
    AccurateRip v2 signature : AF0524D4
        ->Track not present in AccurateRip database.
    Statistics
        Read error                           : 0
        Jitter error (maybe fixed)           : 0
        Retry sector count                   : 0
        Damaged sector count                 : 0
Track 04
    Filename : /Users/bc/cdrips/To Travel Without Any Certain Destination - To Travel Without Any Certain Destination (2012) [FLAC]/04 The Rest.flac
    Track gain               : -10.97 dB
    Peak                     : 0.991394
    CRC32 hash (test run)    : 862B263D
    CRC32 hash               : 862B263D
    CRC32 hash (skip zero)   : D1FFC45D
    AccurateRip v1 signature : F7B3E3B8
    AccurateRip v2 signature : 08014A69
        ->Track not present in AccurateRip database.
    Statistics
        Read error                           : 0
        Jitter error (maybe fixed)           : 0
        Retry sector count                   : 0
        Damaged sector count                 : 0
Track 05
    Filename : /Users/bc/cdrips/To Travel Without Any Certain Destination - To Travel Without Any Certain Destination (2012) [FLAC]/05 Urban Isolation.flac
    Track gain               : -8.63 dB
    Peak                     : 0.996307
    CRC32 hash (test run)    : D73737B9
    CRC32 hash               : D73737B9
    CRC32 hash (skip zero)   : EBAC4053
    AccurateRip v1 signature : 95662F0C
    AccurateRip v2 signature : C3837734
        ->Track not present in AccurateRip database.
    Statistics
        Read error                           : 0
        Jitter error (maybe fixed)           : 0
        Retry sector count                   : 0
        Damaged sector count                 : 0
Track 06
    Filename : /Users/bc/cdrips/To Travel Without Any Certain Destination - To Travel Without Any Certain Destination (2012) [FLAC]/06 Going To Places You're Not Supposed To Go.flac
    Track gain               : -7.91 dB
    Peak                     : 0.991699
    CRC32 hash (test run)    : 740CD75B
    CRC32 hash               : 740CD75B
    CRC32 hash (skip zero)   : 45E94657
    AccurateRip v1 signature : 5EABBCEE
    AccurateRip v2 signature : 2F1B2765
        ->Track not present in AccurateRip database.
    Statistics
        Read error                           : 0
        Jitter error (maybe fixed)           : 0
        Retry sector count                   : 0
        Damaged sector count                 : 0
Track 07
    Filename : /Users/bc/cdrips/To Travel Without Any Certain Destination - To Travel Without Any Certain Destination (2012) [FLAC]/07 While Others Dream.flac
    Track gain               : -8.61 dB
    Peak                     : 0.977020
    CRC32 hash (test run)    : 47CF8A7A
    CRC32 hash               : 47CF8A7A
    CRC32 hash (skip zero)   : F7C06CFB
    AccurateRip v1 signature : DCC1C0DC
    AccurateRip v2 signature : D8A41FA5
        ->Track not present in AccurateRip database.
    Statistics
        Read error                           : 0
        Jitter error (maybe fixed)           : 0
        Retry sector count                   : 0
        Damaged sector count                 : 0
Track 08
    Filename : /Users/bc/cdrips/To Travel Without Any Certain Destination - To Travel Without Any Certain Destination (2012) [FLAC]/08 Let The Night Embraced By Fire.flac
    Track gain               : -5.87 dB
    Peak                     : 1.000000
    CRC32 hash (test run)    : 26B9BE74
    CRC32 hash               : 26B9BE74
    CRC32 hash (skip zero)   : 344D3F4E
    AccurateRip v1 signature : 46DE794F
    AccurateRip v2 signature : DC7F6F21
        ->Track not present in AccurateRip database.
    Statistics
        Read error                           : 0
        Jitter error (maybe fixed)           : 0
        Retry sector count                   : 0
        Damaged sector count                 : 0
Track 09
    Filename : /Users/bc/cdrips/To Travel Without Any Certain Destination - To Travel Without Any Certain Destination (2012) [FLAC]/09 Guided By City Vibes.flac
    Track gain               : -6.24 dB
    Peak                     : 0.977020
    CRC32 hash (test run)    : 1C2C389D
    CRC32 hash               : 1C2C389D
    CRC32 hash (skip zero)   : C14FC160
    AccurateRip v1 signature : 594802DA
    AccurateRip v2 signature : EC7E447C
        ->Track not present in AccurateRip database.
    Statistics
        Read error                           : 0
        Jitter error (maybe fixed)           : 0
        Retry sector count                   : 0
        Damaged sector count                 : 0
Track 10
    Filename : /Users/bc/cdrips/To Travel Without Any Certain Destination - To Travel Without Any Certain Destination (2012) [FLAC]/10 Being Lost.flac
    Track gain               : -7.47 dB
    Peak                     : 0.977020
    CRC32 hash (test run)    : 31EFD52E
    CRC32 hash               : 31EFD52E
    CRC32 hash (skip zero)   : 56DE8738
    AccurateRip v1 signature : B2B8B741
    AccurateRip v2 signature : B54CB6CE
        ->Track not present in AccurateRip database.
    Statistics
        Read error                           : 0
        Jitter error (maybe fixed)           : 0
        Retry sector count                   : 0
        Damaged sector count                 : 0
Track 11
    Filename : /Users/bc/cdrips/To Travel Without Any Certain Destination - To Travel Without Any Certain Destination (2012) [FLAC]/11 She Lures Me Into Another Universe.flac
    Track gain               : -7.23 dB
    Peak                     : 0.976990
    CRC32 hash (test run)    : 5E92F5B4
    CRC32 hash               : 5E92F5B4
    CRC32 hash (skip zero)   : 98BF294C
    AccurateRip v1 signature : 0AA595AF
    AccurateRip v2 signature : E27912F3
        ->Track not present in AccurateRip database.
    Statistics
        Read error                           : 0
        Jitter error (maybe fixed)           : 0
        Retry sector count                   : 0
        Damaged sector count                 : 0
Track 12
    Filename : /Users/bc/cdrips/To Travel Without Any Certain Destination - To Travel Without Any Certain Destination (2012) [FLAC]/12 Let The Night Embraced By Fire (Contagious Orgasm Remix).flac
    Track gain               : -3.72 dB
    Peak                     : 1.000000
    CRC32 hash (test run)    : 41147953
    CRC32 hash               : 41147953
    CRC32 hash (skip zero)   : 7B239428
    AccurateRip v1 signature : 35F44036
    AccurateRip v2 signature : 755FCC4A
        ->Track not present in AccurateRip database.
    Statistics
        Read error                           : 0
        Jitter error (maybe fixed)           : 0
        Retry sector count                   : 0
        Damaged sector count                 : 0
Track 13
    Filename : /Users/bc/cdrips/To Travel Without Any Certain Destination - To Travel Without Any Certain Destination (2012) [FLAC]/13 Going To Places You Are Not Supposed To Go (L'Ombre Remix).flac
    Track gain               : -6.30 dB
    Peak                     : 0.977020
    CRC32 hash (test run)    : 98144627
    CRC32 hash               : 98144627
    CRC32 hash (skip zero)   : 27AEC8E7
    AccurateRip v1 signature : 1842CA6C
    AccurateRip v2 signature : 555DE968
        ->Track not present in AccurateRip database.
    Statistics
        Read error                           : 0
        Jitter error (maybe fixed)           : 0
        Retry sector count                   : 0
        Damaged sector count                 : 0
Track 14
    Filename : /Users/bc/cdrips/To Travel Without Any Certain Destination - To Travel Without Any Certain Destination (2012) [FLAC]/14 Let The Night Embraced By Fire (Hydrone Remix).flac
    Track gain               : -3.30 dB
    Peak                     : 0.977020
    CRC32 hash (test run)    : A13A81BB
    CRC32 hash               : A13A81BB
    CRC32 hash (skip zero)   : 2AEF0216
    AccurateRip v1 signature : 0202BAA0
    AccurateRip v2 signature : 00E7153E
        ->Track not present in AccurateRip database.
    Statistics
        Read error                           : 0
        Jitter error (maybe fixed)           : 0
        Retry sector count                   : 0
        Damaged sector count                 : 0
No errors occurred
End of status report
[/spoiler]
Правила, инструкции, FAQ!!!
Торрент  Добавлен [28 май 2020, 16:43] Скачать торрент Магнет ссылка
Скачать торрент
[ Размер 13.12 КБ / Просмотров 0 ]

Статус
Проверен 
 
Размер  145.21 МБ
Приватный: Нет (DHT включён)
.torrent скачан  0
 


     Отправить личное сообщение
   
Страница 1 из 1
Показать сообщения за:  Поле сортировки  
Начать новую тему Ответить на тему


Сейчас этот форум просматривают: нет зарегистрированных пользователей и гости: 0


Вы не можете начинать темы
Вы не можете отвечать на сообщения
Вы не можете редактировать свои сообщения
Вы не можете удалять свои сообщения
Вы не можете добавлять вложения

Перейти:  
cron