Начать новую тему Ответить на тему
Статистика раздачи
Размер: 422.45 МБ | Добавлен: 26 июн 2020, 19:24 | Скачали: 0
Сидеров: 0  [0 байт/сек]    Личеров: 0  [0 байт/сек]
Пред. тема | След. тема 

Автор
Сообщение

СообщениеДобавлено: 26 июн 2020, 19:24 

Ответить с цитатой 

Aphorism - Surge
Жанр: IDM, Ambient, Industrial
Год выпуска диска: 2009
Производитель диска: US
Аудио кодек: APE
Тип рипа: image+.cue
Продолжительность: 1:12:43
Трэклист:
1. Ulkine (4:59)
2. What We See Now (4:59)
3. Covert / Convert (4:23)
4. Negative Two (4:27)
5. Combat Fashion (5:05)
6. Chrysanthemums For Carrion (6:56)
7. Msect (5:09)
8. Sounang (4:10)
9. Reconsider (3:08)
10. Everything (4:27)
11. Two Sides Of The Bullet (5:29)
12. Raining Dirt (4:39)
13. Negative Two (Totakeke Remix) (5:23)
14. What We See Now (Access To Arasaka Remix) (4:37)
15. Msect (Dissected By Tapage) (4:53)
Доп. информация:
Exact Audio Copy V0.99 prebeta 4 from 23. January 2008
Отчёт EAC об извлечении, выполненном 30. апреля 2009, 21:54
Aphorism / Surge
Дисковод: _NEC DVD_RW ND-4571A Adapter: 0 ID: 0
Режим чтения : Достоверность
Использование точного потока : Да
Отключение кэша аудио : Да
Использование указателей C2 : Нет
Коррекция смещения при чтении : 48
Способность читать области Lead-in и Lead-out : Нет
Заполнение пропущенных сэмплов тишиной : Да
Удаление блоков с тишиной в начале и конце : Нет
При вычислениях CRC использовались нулевые сэмплы : Да
Интерфейс : Установленный внешний ASPI-интерфейс
Выходной формат : Внутренние WAV-операции
Формат сэмплов : 44.100 Гц; 16 бит; стерео
TOC извлечённого CD
Трек | Старт | Длительность | Начальный сектор | Конечный сектор
---------------------------------------------------------------------
1 | 0:00.00 | 4:59.00 | 0 | 22424
2 | 4:59.00 | 4:59.21 | 22425 | 44870
3 | 9:58.21 | 4:22.44 | 44871 | 64564
4 | 14:20.65 | 4:27.30 | 64565 | 84619
5 | 18:48.20 | 5:04.52 | 84620 | 107471
6 | 23:52.72 | 6:56.17 | 107472 | 138688
7 | 30:49.14 | 5:08.37 | 138689 | 161825
8 | 35:57.51 | 4:10.22 | 161826 | 180597
9 | 40:07.73 | 3:08.13 | 180598 | 194710
10 | 43:16.11 | 4:26.68 | 194711 | 214728
11 | 47:43.04 | 5:28.37 | 214729 | 239365
12 | 53:11.41 | 4:38.39 | 239366 | 260254
13 | 57:50.05 | 5:22.71 | 260255 | 284475
14 | 63:13.01 | 4:36.74 | 284476 | 305249
15 | 67:50.00 | 4:53.27 | 305250 | 327251
Характеристики диапазона извлечения и сообщения об ошибках
Выбранный диапазон
Имя файла C:\Documents and Settings\Sashoks\Рабочий стол\Aphorism - Surge.wav
Пиковый уровень 100.0 %
Качество диапазона 100.0 %
CRC копии D80F29C2
Копирование... OK
Ошибок не произошло
Конец отчёта
Правила, инструкции, FAQ!!!
Торрент  Добавлен [26 июн 2020, 19:24] Скачать торрент Магнет ссылка
Скачать торрент
[ Размер 17.33 КБ / Просмотров 12 ]

Статус
Проверен 
 
Размер  422.45 МБ
Приватный: Нет (DHT включён)
.torrent скачан  0
 


     Отправить личное сообщение
   
Страница 1 из 1
Показать сообщения за:  Поле сортировки  
Начать новую тему Ответить на тему


Сейчас этот форум просматривают: нет зарегистрированных пользователей и гости: 0


Вы не можете начинать темы
Вы не можете отвечать на сообщения
Вы не можете редактировать свои сообщения
Вы не можете удалять свои сообщения
Вы не можете добавлять вложения

Перейти:  
cron