Начать новую тему Ответить на тему
Статистика раздачи
Размер: 230 МБ | Добавлен: 26 мар 2019, 19:25 | Скачали: 0
Сидеров: 0  [0 байт/сек]    Личеров: 0  [0 байт/сек]
Пред. тема | След. тема 

Автор
Сообщение

СообщениеДобавлено: 26 мар 2019, 19:25 

Ответить с цитатой 

Superchic / Regeneration
Жанр: Hip Hop, Rock
Носитель: CD
Страна-производитель диска (релиза): US
Год издания: 2003
Издатель (лейбл): Inpop Records ‎
Номер по каталогу: G2 841 471274 2 8
Аудиокодек: FLAC (*.flac)
Тип рипа: tracks+.cue
Битрейт аудио: lossless
Продолжительность: 00:31:59
Источник (релизер): what.cd
Наличие сканов в содержимом раздачи: нет
Треклист:
1 One Girl Revelution (Battle Mix)
2 Get Up (Heelside Mix)
3 Me Against The World
4 Barlow Girls (Space Monkey Lab Mix)
5 Stand Up (Mob Action Mix)
6 I Belong To You (Midnight Mix)
7 Princes And Frogs (Underdog Mix)
8 One And Lonely (The Beatmart Mix)
9 Hero (Red Pill Mix)
Код:
Exact Audio Copy V0.99 prebeta 5 from 4. May 2009
EAC extraction logfile from 12. June 2009, 2:44
Superchic / Regeneration
Used drive  : SONY    DVD RW DRU-810A   Adapter: 0  ID: 0
Read mode               : Secure
Utilize accurate stream : Yes
Defeat audio cache      : Yes
Make use of C2 pointers : No
Read offset correction                      : 618
Overread into Lead-In and Lead-Out          : No
Fill up missing offset samples with silence : Yes
Delete leading and trailing silent blocks   : No
Null samples used in CRC calculations       : Yes
Used interface                              : Native Win32 interface for Win NT & 2000
Gap handling                                : Appended to previous track
Used output format              : User Defined Encoder
Selected bitrate                : 128 kBit/s
Quality                         : High
Add ID3 tag                     : No
Command line compressor         : C:\Program Files (x86)\Exact Audio Copy\Flac\flac.exe
Additional command line options : -V -8 -T "artist=%a" -T "title=%t" -T "album=%g" -T "date=%y" -T "tracknumber=%n" -T "genre=%m" %s
TOC of the extracted CD
     Track |   Start  |  Length  | Start sector | End sector
    ---------------------------------------------------------
        1  |  0:00.00 |  3:10.57 |         0    |    14306
        2  |  3:10.57 |  4:01.08 |     14307    |    32389
        3  |  7:11.65 |  2:58.17 |     32390    |    45756
        4  | 10:10.07 |  3:49.15 |     45757    |    62946
        5  | 13:59.22 |  3:30.48 |     62947    |    78744
        6  | 17:29.70 |  3:09.05 |     78745    |    92924
        7  | 20:39.00 |  3:07.60 |     92925    |   107009
        8  | 23:46.60 |  3:44.35 |    107010    |   123844
        9  | 27:31.20 |  4:27.72 |    123845    |   143941
Track  1
     Filename C:\Users\mlapaglia\Desktop\Superchic - 2003 - Regeneration\01 - One Girl Revolution (Battle Mix).wav
     Pre-gap length  0:00:02.00
     Peak level 99.3 %
     Track quality 100.0 %
     Test CRC 47C21283
     Copy CRC 47C21283
     Cannot be verified as accurate (confidence 2)  [CC05BA29], AccurateRip returned [FBFAFC89]
     Copy OK
Track  2
     Filename C:\Users\mlapaglia\Desktop\Superchic - 2003 - Regeneration\02 - Get Up (Heelside Mix).wav
     Peak level 99.7 %
     Track quality 100.0 %
     Test CRC A9A09487
     Copy CRC A9A09487
     Cannot be verified as accurate (confidence 2)  [C21FB074], AccurateRip returned [20B8DDB2]
     Copy OK
Track  3
     Filename C:\Users\mlapaglia\Desktop\Superchic - 2003 - Regeneration\03 - Me Against The World.wav
     Pre-gap length  0:00:00.73
     Peak level 98.6 %
     Track quality 100.0 %
     Test CRC BB3C86B1
     Copy CRC BB3C86B1
     Cannot be verified as accurate (confidence 2)  [EDC0BFBD], AccurateRip returned [A99CE34A]
     Copy OK
Track  4
     Filename C:\Users\mlapaglia\Desktop\Superchic - 2003 - Regeneration\04 - Barlow Girls (Space Monkey Lab Mix).wav
     Pre-gap length  0:00:01.13
     Peak level 98.6 %
     Track quality 100.0 %
     Test CRC DC053280
     Copy CRC DC053280
     Cannot be verified as accurate (confidence 2)  [A4560798], AccurateRip returned [70DE1FF2]
     Copy OK
Track  5
     Filename C:\Users\mlapaglia\Desktop\Superchic - 2003 - Regeneration\05 - Stand Up (Mob Action Mix).wav
     Peak level 99.7 %
     Track quality 100.0 %
     Test CRC 2A5E25C8
     Copy CRC 2A5E25C8
     Cannot be verified as accurate (confidence 2)  [4C953764], AccurateRip returned [026EB7D3]
     Copy OK
Track  6
     Filename C:\Users\mlapaglia\Desktop\Superchic - 2003 - Regeneration\06 - I Belong To You (Midnight Mix).wav
     Pre-gap length  0:00:00.84
     Peak level 98.6 %
     Track quality 100.0 %
     Test CRC A9855E5F
     Copy CRC A9855E5F
     Cannot be verified as accurate (confidence 2)  [1AEA0E4A], AccurateRip returned [C6B5C431]
     Copy OK
Track  7
     Filename C:\Users\mlapaglia\Desktop\Superchic - 2003 - Regeneration\07 - Princes and Frogs (Underdog Mix).wav
     Peak level 99.7 %
     Track quality 100.0 %
     Test CRC 0F574F9E
     Copy CRC 0F574F9E
     Cannot be verified as accurate (confidence 2)  [C0ED821D], AccurateRip returned [97DFD9B0]
     Copy OK
Track  8
     Filename C:\Users\mlapaglia\Desktop\Superchic - 2003 - Regeneration\08 - One and Lonely (The Beatmart Mix).wav
     Pre-gap length  0:00:01.24
     Peak level 98.6 %
     Track quality 99.9 %
     Test CRC C09679C1
     Copy CRC C09679C1
     Cannot be verified as accurate (confidence 2)  [AE45A907], AccurateRip returned [9507122D]
     Copy OK
Track  9
     Filename C:\Users\mlapaglia\Desktop\Superchic - 2003 - Regeneration\09 - Hero (Red Pill Mix).wav
     Pre-gap length  0:00:02.10
     Peak level 99.7 %
     Track quality 100.0 %
     Test CRC B7836C85
     Copy CRC B7836C85
     Cannot be verified as accurate (confidence 2)  [4713A6CB], AccurateRip returned [0A420E68]
     Copy OK
No tracks could be verified as accurate
You may have a different pressing from the one(s) in the database
No errors occurred
End of status report
Код:
REM GENRE "Christian Rock"
REM DATE 2003
REM DISCID 5B077F09
REM COMMENT "ExactAudioCopy v0.99pb5"
PERFORMER "Superchic"
TITLE "Regeneration"
FILE "01 - One Girl Revolution (Battle Mix).wav" WAVE
  TRACK 01 AUDIO
    TITLE "One Girl Revolution (Battle Mix)"
    PERFORMER "Superchic"
    ISRC USP1R0300202
    INDEX 01 00:00:00
FILE "02 - Get Up (Heelside Mix).wav" WAVE
  TRACK 02 AUDIO
    TITLE "Get Up (Heelside Mix)"
    PERFORMER "Superchic"
    ISRC USP1R0300203
    INDEX 01 00:00:00
  TRACK 03 AUDIO
    TITLE "Me Against The World"
    PERFORMER "Superchic"
    ISRC USP1R0300204
    INDEX 00 04:00:28
FILE "03 - Me Against The World.wav" WAVE
    INDEX 01 00:00:00
  TRACK 04 AUDIO
    TITLE "Barlow Girls (Space Monkey Lab Mix)"
    PERFORMER "Superchic"
    ISRC USP1R0300205
    INDEX 00 02:57:07
FILE "04 - Barlow Girls (Space Monkey Lab Mix).wav" WAVE
    INDEX 01 00:00:00
FILE "05 - Stand Up (Mob Action Mix).wav" WAVE
  TRACK 05 AUDIO
    TITLE "Stand Up (Mob Action Mix)"
    PERFORMER "Superchic"
    ISRC USP1R0300206
    INDEX 01 00:00:00
  TRACK 06 AUDIO
    TITLE "I Belong To You (Midnight Mix)"
    PERFORMER "Superchic"
    ISRC USP1R0300207
    INDEX 00 03:29:60
FILE "06 - I Belong To You (Midnight Mix).wav" WAVE
    INDEX 01 00:00:00
FILE "07 - Princes and Frogs (Underdog Mix).wav" WAVE
  TRACK 07 AUDIO
    TITLE "Princes and Frogs (Underdog Mix)"
    PERFORMER "Superchic"
    ISRC USP1R0300208
    INDEX 01 00:00:00
  TRACK 08 AUDIO
    TITLE "One and Lonely (The Beatmart Mix)"
    PERFORMER "Superchic"
    ISRC USP1R0300209
    INDEX 00 03:06:42
FILE "08 - One and Lonely (The Beatmart Mix).wav" WAVE
    INDEX 01 00:00:00
  TRACK 09 AUDIO
    TITLE "Hero (Red Pill Mix)"
    PERFORMER "Superchic"
    ISRC USP1R0300210
    INDEX 00 03:42:27
FILE "09 - Hero (Red Pill Mix).wav" WAVE
    INDEX 01 00:00:00
Код:
AUDIOCHECKER v2.0 beta (build 457) - by Dester - opdester@freemail.hu
~~~~~~~~~~~~~~~~~~~~~~~~~~~~~~~~~~
-=== DO NOT EDIT THIS FILE! ===-
Path: ...\2003. Regeneration [remix]
1 -=- 01 - One Girl Revolution (Battle Mix).flac -=- CDDA (99%)
2 -=- 02 - Get Up (Heelside Mix).flac -=- CDDA (100%)
3 -=- 03 - Me Against The World.flac -=- CDDA (99%)
4 -=- 04 - Barlow Girls (Space Monkey Lab Mix).flac -=- CDDA (100%)
5 -=- 05 - Stand Up (Mob Action Mix).flac -=- CDDA (100%)
6 -=- 06 - I Belong To You (Midnight Mix).flac -=- CDDA (100%)
7 -=- 07 - Princes and Frogs (Underdog Mix).flac -=- CDDA (100%)
8 -=- 08 - One and Lonely (The Beatmart Mix).flac -=- CDDA (100%)
9 -=- 09 - Hero (Red Pill Mix).flac -=- CDDA (100%)
Summary 99,78% CDDA
248077188
Правила, инструкции, FAQ!!!
Торрент  Добавлен [26 мар 2019, 19:25] Скачать торрент Магнет ссылка
Скачать торрент
[ Размер 19.17 КБ / Просмотров 2 ]

Статус
Проверен 
 
Размер  230 МБ
Приватный: Нет (DHT включён)
.torrent скачан  0
 


     Отправить личное сообщение
   
Страница 1 из 1
Показать сообщения за:  Поле сортировки  
Начать новую тему Ответить на тему


Сейчас этот форум просматривают: нет зарегистрированных пользователей и гости: 0


Вы не можете начинать темы
Вы не можете отвечать на сообщения
Вы не можете редактировать свои сообщения
Вы не можете удалять свои сообщения
Вы не можете добавлять вложения

Перейти:  
cron