Начать новую тему Ответить на тему
Статистика раздачи
Размер: 255.03 МБ | Добавлен: 26 мар 2019, 19:25 | Скачали: 0
Сидеров: 0  [0 байт/сек]    Личеров: 0  [0 байт/сек]
Пред. тема | След. тема 

Автор
Сообщение

СообщениеДобавлено: 26 мар 2019, 19:25 

Ответить с цитатой 

Superchic ‎ / Beauty From Pain
Жанр: Hip Hop, Rock, Pop
Носитель: CD
Страна-производитель диска (релиза): US
Год издания: 2005
Издатель (лейбл): Inpop Records ‎
Номер по каталогу: 8041 4 71279 0 9
Аудиокодек: FLAC (*.flac)
Тип рипа: tracks+.cue
Битрейт аудио: lossless
Продолжительность: 00:35:38
Источник (релизер): what.cd
Наличие сканов в содержимом раздачи: нет
Треклист:
1 Anthem
2 Pure
3 Bowling Ball
4 Stories (Down To The Bottom)
5 Wishes
6 Beauty From Pain
7 It's On
8 Suddenly
9 Courage
10 We Live
Код:
EAC extraction logfile from 10. June 2009, 21:56 for CD
Superchic[k] / Beauty From Pain
Used drive  : TSSTcorpCDDVDW SH-S203P   Adapter: 0  ID: 1
Read mode   : Secure with NO C2, accurate stream, disable cache
Read offset correction : 6
Overread into Lead-In and Lead-Out : No
Used output format : C:\Program\Exact Audio Copy\flac.exe   (User Defined Encoder)
                     320 kBit/s
                     Additional command line options : -V -8 -T "artist=%a" -T "title=%t" -T "album=%g" -T "date=%y" -T "tracknumber=%n" -T "genre=%m" %s
Other options      :
    Fill up missing offset samples with silence : Yes
    Delete leading and trailing silent blocks : No
    Native Win32 interface for Win NT & 2000
Track  1
     Filename C:\Rippar\FLAC\Superchic[k] - 2005 - Beauty From Pain\01 - Anthem.wav
     Pre-gap length  0:00:02.00
     Peak level 98.8 %
     Track quality 100.0 %
     Test CRC 83233744
     Copy CRC 83233744
     Copy OK
Track  2
     Filename C:\Rippar\FLAC\Superchic[k] - 2005 - Beauty From Pain\02 - Pure.wav
     Pre-gap length  0:00:00.04
     Peak level 98.8 %
     Track quality 100.0 %
     Test CRC 9C81B8CD
     Copy CRC 9C81B8CD
     Copy OK
Track  3
     Filename C:\Rippar\FLAC\Superchic[k] - 2005 - Beauty From Pain\03 - Bowling Ball.wav
     Peak level 99.9 %
     Track quality 100.0 %
     Test CRC 35C873C4
     Copy CRC 35C873C4
     Copy OK
Track  4
     Filename C:\Rippar\FLAC\Superchic[k] - 2005 - Beauty From Pain\04 - Stories (Down To The Bottom).wav
     Pre-gap length  0:00:00.56
     Peak level 98.8 %
     Track quality 100.0 %
     Test CRC B668DBDB
     Copy CRC B668DBDB
     Copy OK
Track  5
     Filename C:\Rippar\FLAC\Superchic[k] - 2005 - Beauty From Pain\05 - Wishes.wav
     Pre-gap length  0:00:00.57
     Peak level 99.9 %
     Track quality 100.0 %
     Test CRC B7441455
     Copy CRC B7441455
     Copy OK
Track  6
     Filename C:\Rippar\FLAC\Superchic[k] - 2005 - Beauty From Pain\06 - Beauty From Pain.wav
     Pre-gap length  0:00:00.76
     Peak level 99.9 %
     Track quality 99.9 %
     Test CRC CDAE0145
     Copy CRC CDAE0145
     Copy OK
Track  7
     Filename C:\Rippar\FLAC\Superchic[k] - 2005 - Beauty From Pain\07 - It's On.wav
     Pre-gap length  0:00:01.52
     Peak level 100.0 %
     Track quality 100.0 %
     Test CRC 6E8E2F42
     Copy CRC 6E8E2F42
     Copy OK
Track  8
     Filename C:\Rippar\FLAC\Superchic[k] - 2005 - Beauty From Pain\08 - Suddenly.wav
     Pre-gap length  0:00:00.08
     Peak level 100.0 %
     Track quality 100.0 %
     Test CRC 80DA2E4F
     Copy CRC 80DA2E4F
     Copy OK
Track  9
     Filename C:\Rippar\FLAC\Superchic[k] - 2005 - Beauty From Pain\09 - Courage.wav
     Pre-gap length  0:00:01.77
     Peak level 98.8 %
     Track quality 100.0 %
     Test CRC F3410608
     Copy CRC F3410608
     Copy OK
Track 10
     Filename C:\Rippar\FLAC\Superchic[k] - 2005 - Beauty From Pain\10 - We Live.wav
     Pre-gap length  0:00:00.26
     Peak level 98.0 %
     Track quality 100.0 %
     Test CRC B70201D5
     Copy CRC B70201D5
     Copy OK
No errors occured
End of status report
Код:
REM GENRE "Christian Rock"
REM DATE 2005
REM DISCID 880A3E0B
REM COMMENT "ExactAudioCopy v0.95b4"
FILE "01 - Anthem.wav" WAVE
  TRACK 01 AUDIO
    INDEX 01 00:00:00
  TRACK 02 AUDIO
    INDEX 00 02:52:44
FILE "02 - Pure.wav" WAVE
    INDEX 01 00:00:00
FILE "03 - Bowling Ball.wav" WAVE
  TRACK 03 AUDIO
    INDEX 01 00:00:00
  TRACK 04 AUDIO
    INDEX 00 03:04:22
FILE "04 - Stories (Down To The Bottom).wav" WAVE
    INDEX 01 00:00:00
  TRACK 05 AUDIO
    INDEX 00 03:51:03
FILE "05 - Wishes.wav" WAVE
    INDEX 01 00:00:00
  TRACK 06 AUDIO
    INDEX 00 03:31:11
FILE "06 - Beauty From Pain.wav" WAVE
    INDEX 01 00:00:00
  TRACK 07 AUDIO
    INDEX 00 04:27:32
FILE "07 - It's On.wav" WAVE
    INDEX 01 00:00:00
  TRACK 08 AUDIO
    INDEX 00 03:28:48
FILE "08 - Suddenly.wav" WAVE
    INDEX 01 00:00:00
  TRACK 09 AUDIO
    INDEX 00 03:33:65
FILE "09 - Courage.wav" WAVE
    INDEX 01 00:00:00
  TRACK 10 AUDIO
    INDEX 00 04:00:37
FILE "10 - We Live.wav" WAVE
    INDEX 01 00:00:00
  TRACK 11 MODEx/2xxx
    INDEX 00 03:12:23
Код:
AUDIOCHECKER v2.0 beta (build 457) - by Dester - opdester@freemail.hu
~~~~~~~~~~~~~~~~~~~~~~~~~~~~~~~~~~
-=== DO NOT EDIT THIS FILE! ===-
Path: ...\2005. Beauty From Pain
01 -=- 01 - Anthem.flac -=- CDDA (99%)
02 -=- 02 - Pure.flac -=- CDDA (99%)
03 -=- 03 - Bowling Ball.flac -=- CDDA (100%)
04 -=- 04 - Stories (Down To The Bottom).flac -=- CDDA (100%)
05 -=- 05 - Wishes.flac -=- CDDA (100%)
06 -=- 06 - Beauty From Pain.flac -=- CDDA (99%)
07 -=- 07 - It's On.flac -=- CDDA (100%)
08 -=- 08 - Suddenly.flac -=- CDDA (100%)
09 -=- 09 - Courage.flac -=- CDDA (100%)
10 -=- 10 - We Live.flac -=- CDDA (100%)
Summary 99,70% CDDA
255684388
Правила, инструкции, FAQ!!!
Торрент  Добавлен [26 мар 2019, 19:25] Скачать торрент Магнет ссылка
Скачать торрент
[ Размер 21.03 КБ / Просмотров 0 ]

Статус
Проверен 
 
Размер  255.03 МБ
Приватный: Нет (DHT включён)
.torrent скачан  0
 


     Отправить личное сообщение
   
Страница 1 из 1
Показать сообщения за:  Поле сортировки  
Начать новую тему Ответить на тему


Сейчас этот форум просматривают: нет зарегистрированных пользователей и гости: 0


Вы не можете начинать темы
Вы не можете отвечать на сообщения
Вы не можете редактировать свои сообщения
Вы не можете удалять свои сообщения
Вы не можете добавлять вложения

Перейти:  
cron