Начать новую тему Ответить на тему
Статистика раздачи
Размер: 78.11 ГБ | Добавлен: 05 июн 2020, 23:12 | Скачали: 0
Сидеров: 0  [0 байт/сек]    Личеров: 0  [0 байт/сек]
Пред. тема | След. тема 

Автор
Сообщение

СообщениеДобавлено: 05 июн 2020, 23:12 

Ответить с цитатой 

Hector Berlioz “Les Troyens” / Гектор Берлиоз “Троянцы” 2004
Год выпуска: 2010
Лейбл: Opus Arte
Жанр: Opera
Продолжительность: 04:05:35
Язык: Французский
Перевод: нет
Субтитры: English, French, German, Spanish
Режиссер-постановщик/Режиссер съемок: Yannis Kokkos / Peter Maniura
Дирижер: Сэр Джон Элиот Гардинер / Sir John Eliot Gardiner
Исполнители:
Susan Graham - Dido
Anna Caterina Antonacci - Cassandra
Gregory Kunde - Aeneas
Ludovic Tézier - Chorèbe
Laurent Naouri - Narbal
Renata Pokupic - Anna
Lydia Korniordou - Andromache
Hippolyte Lykavieris - Astyanax
Mark Padmore - Iopas
Stéphanie d'Oustrac - Ascanius
Topi Lehtipuu - Hylas / Helenus
Nicolas Testé - Panthus
Fernand Bernardi - Ghost of Hector
René Schirrer - Priam
Danielle Bouthillon - Hecube
Laurent Alvaro - Trojans Guards
Nicolas Courjal - Trojans Guards
Robert Davies - Greek Captain
Benjamin Davies - Trojan soldier
Simon Davies - Priest of Pluto
Frances Jellard - Polyxenes
Chorus of the Théâtre du Châtelet /Monteverdi Choir
Orchestre Révolutionnaire et Romantique
Треклист:
Гектор Берлиоз / Hector Berlioz (1803-1869)
Троянцы / Les Troyens (1856-60)
Опера в 5 актах.
Диск 1
Акт 1
Акт 2
Доп. материалы:
Synopsis [00:09:30]
Cast Gallery [00:01:40]
The Troyans or Masterpiece Revived [00:59:26]
Диск 2
Акт 3
Акт 4
Акт 5
Либретто автора по мотивам "Энеиды" Вергилия
«Троянцы» (фр. Les Troyens) — оперная дилогия Гектора Берлиоза, написанная по мотивам «Энеиды» Вергилия, H 133a. Состоит из двух логически взаимосвязанных частей: «Падение Трои» и «Троянцы в Карфагене». Общая продолжительность оперы — более 5 часов (в данной редакции - 4 часа). Опера сочетает традиции классического героического эпоса и французского романтизма. Работа над оперой велась в течение двух лет — с 1856 по 1858 год.
Первая постановка «Троянцев в Карфагене» состоялась 4 ноября 1863 года в парижском Лирическом театре (дирижер: Гектор Берлиоз, Адольф Делофри). «Падение Трои» впервые было поставлено уже после смерти композитора 7 декабря 1879 года в парижском театре «Шатле». Впервые вся дилогия была продемонстрирована публике на немецком языке 6 декабря 1890 года (дирижер Феликс Мотль) в Придворном театре великого герцога, Карлсруэ (Баден-Вюртемберг, Германия). А премьера дилогии на языке оригинала состоялась в 1906 году в Брюсселе
Падение Трои. По совету хитроумного Улисса греки, безуспешно осаждавшие Трою, оставляют лагерь. Троянцы находят там гигантского деревянного коня и, не слушая совета пророчицы Кассандры, втаскивают его в стены города. Тень убитого Гектора является спящему в палатке Энею, предвещая гибель города и судьбу самого Энея, которому суждено основать новый город, Рим. Спрятанные внутри деревянного коня греки открывают ворота Трои, и в город врываются враги. Эней во главе троянцев бросается в бой. Жены Трои, чтобы избежать рабства, по примеру Кассандры кончают жизнь самоубийством.
Троянцы в Карфагене. Эней с частью своего отряда прибывает на корабле из разрушенной Трои в Карфаген, где его радостно встречает царица Дидона. Герой рассказывает Дидоне о падении Трои. Эней вместе с Дидоной охотится в лесу; разражается гроза, и влюбленные укрываются в гроте. Посланец богов Меркурий передает Энею волю Юпитера покинуть Карфаген и направиться в Италию, где он должен основать великий город и мощную державу. После тяжелой душевной борьбы Эней решает выполнить волю богов. Корабль Энея отплывает. По приказу Дидоны сложен огромный костер на берегу моря. Царица предвещает грядущую гибель города, основанного Энеем. Из ее крови восстанет мститель (Ганнибал), но погибнет и Карфаген. Она пронзает грудь мечом, и ее тело кладут на костер. В апофеозе виден римский Капитолий. Жрец и народ проклинают Энея и его род.
Доп. информация: Театр «Шатле» (фр. Théâtre du Châtelet) — музыкальный театр в I округе Парижа на одноимённой площади; существует с 1862 года. Самый большой парижский зал классической музыки.
Качество видео: Blu-ray
Формат/Контейнер: BDMV
Видео кодек: H.264
Аудио кодек: PCM, DTS
Видео : MPEG-4 AVC Video / 27967 kbps / 1080i / 29.970 fps / 16:9 / High Profile 4.1
Аудио#1: French / LPCM Audio / 2.0 / 48 kHz / 2304 kbps / 24-bit
Аудио#2: French / DTS-HD Master Audio / 5.0 / 48 kHz / 3549 kbps / 24-bit (DTS Core: 5.0 / 48 kHz / 1509 kbps / 24-bit)
Код:
Disc Label:     LES TROYENS
Disc Size:      41,356,106,126 bytes
Protection:     AACS
BDInfo:         0.7.5.5
Notes:
BDINFO HOME:
  Cinema Squid (old)
    [url=http://www.cinemasquid.com/blu-ray/tools/bdinfo]http://www.cinemasquid.com/blu-ray/tools/bdinfo[/url]
  UniqProject GitHub (new)
   [url=https://github.com/UniqProject/BDInfo]https://github.com/UniqProject/BDInfo[/url]
INCLUDES FORUMS REPORT FOR:
  AVS Forum Blu-ray Audio and Video Specifications Thread
    [url=http://www.avsforum.com/avs-vb/showthread.php?t=1155731]http://www.avsforum.com/avs-vb/showthread.php?t=1155731[/url]
********************
PLAYLIST: 00002.MPLS
********************
<--- BEGIN FORUMS PASTE --->
Код:
Код:
                                                                                Total   Video
Title                                                           Codec   Length  Movie Size      Disc Size       Bitrate Bitrate Main Audio Track                          Secondary Audio Track
-----                                                           ------  ------- --------------  --------------  ------- ------- ------------------                        ---------------------
00002.MPLS                                                      AVC     1:27:43 24,994,381,824  41,356,106,126  37.99   29.96   DTS-HD Master 5.0 3689Kbps (48kHz/24-bit) LPCM 2.0 2304Kbps (48kHz/24-bit)

Код:
Код:
DISC INFO:
Disc Label:     LES TROYENS
Disc Size:      41,356,106,126 bytes
Protection:     AACS
BDInfo:         0.7.5.5
PLAYLIST REPORT:
Name:                   00002.MPLS
Length:                 1:27:43.291 (h:m:s.ms)
Size:                   24,994,381,824 bytes
Total Bitrate:          37.99 Mbps
VIDEO:
Codec                   Bitrate             Description
-----                   -------             -----------
MPEG-4 AVC Video        29963 kbps          1080i / 29.970 fps / 16:9 / High Profile 4.1
AUDIO:
Codec                           Language        Bitrate         Description
-----                           --------        -------         -----------
DTS-HD Master Audio             French          3689 kbps       5.0 / 48 kHz /  3689 kbps / 24-bit (DTS Core: 5.0 / 48 kHz /  1509 kbps / 24-bit)
LPCM Audio                      French          2304 kbps       2.0 / 48 kHz /  2304 kbps / 24-bit
SUBTITLES:
Codec                           Language        Bitrate         Description
-----                           --------        -------         -----------
Presentation Graphics           English         16.774 kbps
Presentation Graphics           French          16.866 kbps
Presentation Graphics           German          19.363 kbps
Presentation Graphics           Spanish         17.487 kbps
FILES:
Name            Time In         Length          Size            Total Bitrate
----            -------         ------          ----            -------------
00008.M2TS      0:00:00.000     1:27:43.291     24,994,381,824  37,990
CHAPTERS:
Number          Time In         Length          Avg Video Rate  Max 1-Sec Rate  Max 1-Sec Time  Max 5-Sec Rate  Max 5-Sec Time  Max 10Sec Rate  Max 10Sec Time  Avg Frame Size  Max Frame Size  Max Frame Time
------          -------         ------          --------------  --------------  --------------  --------------  --------------  --------------  --------------  --------------  --------------  --------------
1               0:00:00.000     0:01:11.071     31,450 kbps     59,397 kbps     00:00:01.067    35,977 kbps     00:00:01.067    34,102 kbps     00:00:34.734    131,109 bytes   489,558 bytes   00:00:01.234
2               0:01:11.071     0:04:20.326     31,048 kbps     48,454 kbps     00:01:11.071    34,298 kbps     00:03:45.491    33,705 kbps     00:03:44.324    129,496 bytes   413,220 bytes   00:01:11.104
3               0:05:31.397     0:03:15.195     29,524 kbps     42,955 kbps     00:08:11.691    34,477 kbps     00:08:08.621    32,621 kbps     00:08:03.482    123,139 bytes   332,169 bytes   00:08:11.791
4               0:08:46.592     0:04:55.294     30,158 kbps     35,864 kbps     00:13:36.782    32,175 kbps     00:13:35.915    31,157 kbps     00:10:58.324    125,783 bytes   366,380 bytes   00:13:36.882
5               0:13:41.887     0:04:57.263     30,012 kbps     39,228 kbps     00:14:17.623    32,415 kbps     00:17:22.241    32,334 kbps     00:17:22.174    125,177 bytes   290,501 bytes   00:15:01.767
6               0:18:39.151     0:09:55.561     29,971 kbps     42,484 kbps     00:19:41.013    33,346 kbps     00:26:50.809    32,471 kbps     00:18:56.535    125,003 bytes   315,124 bytes   00:28:34.713
7               0:28:34.713     0:05:13.713     30,576 kbps     42,020 kbps     00:32:11.129    32,724 kbps     00:28:57.135    31,923 kbps     00:33:35.513    127,526 bytes   329,444 bytes   00:28:37.282
8               0:33:48.426     0:01:44.437     30,832 kbps     40,376 kbps     00:34:29.267    34,466 kbps     00:34:27.198    32,911 kbps     00:34:27.198    128,597 bytes   327,848 bytes   00:34:29.634
9               0:35:32.864     0:07:31.684     30,069 kbps     44,718 kbps     00:36:03.461    36,475 kbps     00:36:03.461    34,142 kbps     00:36:03.461    125,413 bytes   337,882 bytes   00:36:03.494
10              0:43:04.548     0:01:11.104     30,290 kbps     35,286 kbps     00:43:35.245    31,700 kbps     00:43:34.878    31,277 kbps     00:43:35.012    126,336 bytes   328,974 bytes   00:44:15.652
11              0:44:15.652     0:06:19.445     29,749 kbps     41,316 kbps     00:44:17.621    33,713 kbps     00:44:15.652    31,410 kbps     00:49:12.082    124,079 bytes   306,814 bytes   00:44:17.655
12              0:50:35.098     0:01:35.295     31,105 kbps     37,361 kbps     00:51:35.091    32,991 kbps     00:51:43.133    32,519 kbps     00:51:41.731    129,734 bytes   283,053 bytes   00:51:35.192
13              0:52:10.393     0:02:12.031     29,723 kbps     35,947 kbps     00:52:51.768    32,640 kbps     00:53:12.222    32,480 kbps     00:53:07.083    123,968 bytes   287,240 bytes   00:54:22.425
14              0:54:22.425     0:07:59.212     30,275 kbps     43,046 kbps     00:59:34.537    34,356 kbps     00:58:12.021    33,937 kbps     00:58:07.016    126,271 bytes   434,241 bytes   00:58:32.442
15              1:02:21.637     0:07:58.911     27,747 kbps     51,544 kbps     01:02:22.038    34,846 kbps     01:02:21.904    31,867 kbps     01:02:21.904    115,729 bytes   337,427 bytes   01:02:22.472
16              1:10:20.549     0:02:47.834     30,244 kbps     40,763 kbps     01:11:50.773    35,118 kbps     01:10:27.957    32,040 kbps     01:12:19.301    126,144 bytes   367,890 bytes   01:11:18.073
17              1:13:08.384     0:03:07.554     28,932 kbps     36,757 kbps     01:13:08.384    31,511 kbps     01:13:08.384    30,338 kbps     01:13:46.655    120,670 bytes   256,966 bytes   01:13:21.163
18              1:16:15.938     0:04:04.777     31,022 kbps     36,913 kbps     01:19:59.461    33,593 kbps     01:19:15.417    32,731 kbps     01:19:10.979    129,387 bytes   320,752 bytes   01:19:04.806
19              1:20:20.715     0:07:22.575     30,119 kbps     54,781 kbps     01:25:45.173    36,741 kbps     01:25:45.173    34,257 kbps     01:25:45.173    125,629 bytes   482,119 bytes   01:25:45.240
STREAM DIAGNOSTICS:
File            PID             Type            Codec           Language                Seconds                 Bitrate                 Bytes           Packets
----            ---             ----            -----           --------                --------------          --------------          -------------   -----
00008.M2TS      4113 (0x1011)   0x1B            AVC                                     5263.225                29,963                  19,712,918,820  107,306,254
00008.M2TS      4352 (0x1100)   0x86            DTS-HD MA       fra (French)            5263.225                3,689                   2,427,103,424   14,011,867
00008.M2TS      4353 (0x1101)   0x80            LPCM            fra (French)            5263.225                2,310                   1,520,039,596   8,421,272
00008.M2TS      4608 (0x1200)   0x90            PGS             eng (English)           5263.225                17                      11,036,066      62,759
00008.M2TS      4609 (0x1201)   0x90            PGS             fra (French)            5263.225                17                      11,096,474      63,136
00008.M2TS      4610 (0x1202)   0x90            PGS             deu (German)            5263.225                19                      12,739,021      72,069
00008.M2TS      4611 (0x1203)   0x90            PGS             spa (Spanish)           5263.225                17                      11,504,937      65,364

Код:
<---- END FORUMS PASTE ---->
QUICK SUMMARY:
Disc Label: LES TROYENS
Disc Size: 41,356,106,126 bytes
Protection: AACS
Playlist: 00002.MPLS
Size: 24,994,381,824 bytes
Length: 1:27:43.291
Total Bitrate: 37.99 Mbps
Video: MPEG-4 AVC Video / 29963 kbps / 1080i / 29.970 fps / 16:9 / High Profile 4.1
Audio: French / DTS-HD Master Audio / 5.0 / 48 kHz /  3689 kbps / 24-bit (DTS Core: 5.0 / 48 kHz /  1509 kbps / 24-bit)
Audio: French / LPCM Audio / 2.0 / 48 kHz /  2304 kbps / 24-bit
Subtitle: English / 16.774 kbps
Subtitle: French / 16.866 kbps
Subtitle: German / 19.363 kbps
Subtitle: Spanish / 17.487 kbps
********************
PLAYLIST: 00005.MPLS
********************
<--- BEGIN FORUMS PASTE --->
Код:
Код:
                                                                                Total   Video
Title                                                           Codec   Length  Movie Size      Disc Size       Bitrate Bitrate Main Audio Track                          Secondary Audio Track
-----                                                           ------  ------- --------------  --------------  ------- ------- ------------------                        ---------------------
00005.MPLS                                                      AVC     0:59:26 14,768,830,464  41,356,106,126  33.13   29.72   LPCM 2.0 1536Kbps (48kHz/16-bit)

Код:
Код:
DISC INFO:
Disc Label:     LES TROYENS
Disc Size:      41,356,106,126 bytes
Protection:     AACS
BDInfo:         0.7.5.5
PLAYLIST REPORT:
Name:                   00005.MPLS
Length:                 0:59:26.563 (h:m:s.ms)
Size:                   14,768,830,464 bytes
Total Bitrate:          33.13 Mbps
VIDEO:
Codec                   Bitrate             Description
-----                   -------             -----------
MPEG-4 AVC Video        29718 kbps          1080i / 29.970 fps / 16:9 / High Profile 4.1
AUDIO:
Codec                           Language        Bitrate         Description
-----                           --------        -------         -----------
LPCM Audio                      English         1536 kbps       2.0 / 48 kHz /  1536 kbps / 16-bit
SUBTITLES:
Codec                           Language        Bitrate         Description
-----                           --------        -------         -----------
Presentation Graphics           English         16.566 kbps
Presentation Graphics           French          47.311 kbps
Presentation Graphics           German          50.434 kbps
Presentation Graphics           Spanish         45.302 kbps
FILES:
Name            Time In         Length          Size            Total Bitrate
----            -------         ------          ----            -------------
00007.M2TS      0:00:00.000     0:59:26.563     14,768,830,464  33,127
CHAPTERS:
Number          Time In         Length          Avg Video Rate  Max 1-Sec Rate  Max 1-Sec Time  Max 5-Sec Rate  Max 5-Sec Time  Max 10Sec Rate  Max 10Sec Time  Avg Frame Size  Max Frame Size  Max Frame Time
------          -------         ------          --------------  --------------  --------------  --------------  --------------  --------------  --------------  --------------  --------------  --------------
1               0:00:00.000     0:03:27.073     30,384 kbps     55,411 kbps     00:00:01.000    38,027 kbps     00:00:01.001    34,739 kbps     00:00:01.000    126,706 bytes   510,590 bytes   00:00:01.034
2               0:03:27.073     0:04:01.040     30,012 kbps     46,587 kbps     00:04:24.631    34,181 kbps     00:04:22.562    32,272 kbps     00:04:17.290    125,174 bytes   538,605 bytes   00:04:24.731
3               0:07:28.114     0:03:46.793     29,823 kbps     53,613 kbps     00:08:36.015    38,006 kbps     00:08:35.815    33,845 kbps     00:08:35.615    124,388 bytes   500,750 bytes   00:10:21.988
4               0:11:14.907     0:03:35.648     30,101 kbps     47,859 kbps     00:13:00.780    35,445 kbps     00:13:34.647    33,887 kbps     00:13:30.109    125,546 bytes   631,411 bytes   00:13:37.550
5               0:14:50.556     0:01:37.330     29,802 kbps     39,979 kbps     00:14:50.556    32,372 kbps     00:15:38.604    31,466 kbps     00:15:35.601    124,297 bytes   386,842 bytes   00:15:41.840
6               0:16:27.886     0:03:00.446     29,728 kbps     56,993 kbps     00:16:28.287    35,800 kbps     00:16:28.187    32,791 kbps     00:18:35.314    123,993 bytes   405,730 bytes   00:16:28.587
7               0:19:28.333     0:05:28.828     30,168 kbps     47,690 kbps     00:22:59.077    35,327 kbps     00:22:59.077    33,163 kbps     00:22:54.106    125,827 bytes   540,314 bytes   00:22:59.111
8               0:24:57.162     0:03:00.113     30,893 kbps     47,787 kbps     00:24:57.162    37,747 kbps     00:25:57.122    34,475 kbps     00:25:38.670    128,849 bytes   485,736 bytes   00:27:18.370
9               0:27:57.275     0:02:35.355     29,420 kbps     43,693 kbps     00:29:48.286    33,793 kbps     00:29:18.690    31,425 kbps     00:29:13.685    122,705 bytes   492,784 bytes   00:29:48.353
10              0:30:32.630     0:03:28.208     29,846 kbps     50,441 kbps     00:31:43.868    34,254 kbps     00:31:39.697    32,115 kbps     00:31:38.529    124,484 bytes   463,091 bytes   00:31:43.968
11              0:34:00.838     0:04:18.358     30,312 kbps     48,884 kbps     00:34:58.996    35,761 kbps     00:34:57.395    34,445 kbps     00:34:32.870    126,428 bytes   533,004 bytes   00:35:09.874
12              0:38:19.196     0:01:34.027     29,907 kbps     52,077 kbps     00:39:01.038    36,592 kbps     00:39:00.638    33,667 kbps     00:39:00.771    124,737 bytes   628,680 bytes   00:39:01.105
13              0:39:53.224     0:02:10.363     29,663 kbps     44,846 kbps     00:39:53.224    33,635 kbps     00:39:53.224    31,027 kbps     00:41:31.956    123,718 bytes   463,983 bytes   00:42:03.587
14              0:42:03.587     0:04:23.129     29,782 kbps     54,237 kbps     00:44:54.792    35,053 kbps     00:44:50.988    33,000 kbps     00:44:45.983    124,216 bytes   549,527 bytes   00:44:54.892
15              0:46:26.717     0:06:18.444     29,886 kbps     42,980 kbps     00:51:33.824    34,346 kbps     00:51:31.588    32,839 kbps     00:51:28.051    124,651 bytes   437,299 bytes   00:48:06.316
16              0:52:45.161     0:03:40.587     30,004 kbps     47,045 kbps     00:55:43.840    33,317 kbps     00:52:45.161    32,125 kbps     00:55:35.332    125,143 bytes   516,270 bytes   00:55:43.973
17              0:56:25.749     0:03:00.813     24,332 kbps     43,331 kbps     00:57:41.591    32,906 kbps     00:57:39.322    31,574 kbps     00:57:34.551    101,505 bytes   497,288 bytes   00:57:41.758
STREAM DIAGNOSTICS:
File            PID             Type            Codec           Language                Seconds                 Bitrate                 Bytes           Packets
----            ---             ----            -----           --------                --------------          --------------          -------------   -----
00007.M2TS      4113 (0x1011)   0x1B            AVC                                     3566.496                29,718                  13,248,814,165  72,120,372
00007.M2TS      4352 (0x1100)   0x80            LPCM            eng (English)           3566.496                1,542                   687,633,732     4,279,878
00007.M2TS      4608 (0x1200)   0x90            PGS             eng (English)           3566.496                17                      7,385,566       41,894
00007.M2TS      4609 (0x1201)   0x90            PGS             fra (French)            3566.496                47                      21,092,002      118,876
00007.M2TS      4610 (0x1202)   0x90            PGS             deu (German)            3566.496                50                      22,484,338      126,456
00007.M2TS      4611 (0x1203)   0x90            PGS             spa (Spanish)           3566.496                45                      20,196,343      114,011

Код:
<---- END FORUMS PASTE ---->
QUICK SUMMARY:
Disc Label: LES TROYENS
Disc Size: 41,356,106,126 bytes
Protection: AACS
Playlist: 00005.MPLS
Size: 14,768,830,464 bytes
Length: 0:59:26.563
Total Bitrate: 33.13 Mbps
Video: MPEG-4 AVC Video / 29718 kbps / 1080i / 29.970 fps / 16:9 / High Profile 4.1
Audio: English / LPCM Audio / 2.0 / 48 kHz /  1536 kbps / 16-bit
Subtitle: English / 16.566 kbps
Subtitle: French / 47.311 kbps
Subtitle: German / 50.434 kbps
Subtitle: Spanish / 45.302 kbps
********************
PLAYLIST: 00003.MPLS
********************
<--- BEGIN FORUMS PASTE --->
Код:
Код:
                                                                                Total   Video
Title                                                           Codec   Length  Movie Size      Disc Size       Bitrate Bitrate Main Audio Track                          Secondary Audio Track
-----                                                           ------  ------- --------------  --------------  ------- ------- ------------------                        ---------------------
00003.MPLS                                                      AVC     0:09:30 1,271,470,080   41,356,106,126  17.83   14.98   LPCM 2.0 1536Kbps (48kHz/16-bit)

Код:
Код:
DISC INFO:
Disc Label:     LES TROYENS
Disc Size:      41,356,106,126 bytes
Protection:     AACS
BDInfo:         0.7.5.5
PLAYLIST REPORT:
Name:                   00003.MPLS
Length:                 0:09:30.603 (h:m:s.ms)
Size:                   1,271,470,080 bytes
Total Bitrate:          17.83 Mbps
VIDEO:
Codec                   Bitrate             Description
-----                   -------             -----------
MPEG-4 AVC Video        14976 kbps          1080i / 29.970 fps / 16:9 / High Profile 4.1
AUDIO:
Codec                           Language        Bitrate         Description
-----                           --------        -------         -----------
LPCM Audio                      English         1536 kbps       2.0 / 48 kHz /  1536 kbps / 16-bit
SUBTITLES:
Codec                           Language        Bitrate         Description
-----                           --------        -------         -----------
Presentation Graphics           English         0.002 kbps
Presentation Graphics           French          82.579 kbps
Presentation Graphics           German          85.705 kbps
Presentation Graphics           Spanish         89.771 kbps
FILES:
Name            Time In         Length          Size            Total Bitrate
----            -------         ------          ----            -------------
00005.M2TS      0:00:00.000     0:09:30.603     1,271,470,080   17,826
CHAPTERS:
Number          Time In         Length          Avg Video Rate  Max 1-Sec Rate  Max 1-Sec Time  Max 5-Sec Rate  Max 5-Sec Time  Max 10Sec Rate  Max 10Sec Time  Avg Frame Size  Max Frame Size  Max Frame Time
------          -------         ------          --------------  --------------  --------------  --------------  --------------  --------------  --------------  --------------  --------------  --------------
1               0:00:00.000     0:09:30.603     14,976 kbps     29,395 kbps     00:00:47.047    21,982 kbps     00:02:12.532    18,963 kbps     00:02:12.999    62,461 bytes    787,066 bytes   00:02:20.139
STREAM DIAGNOSTICS:
File            PID             Type            Codec           Language                Seconds                 Bitrate                 Bytes           Packets
----            ---             ----            -----           --------                --------------          --------------          -------------   -----
00005.M2TS      4113 (0x1011)   0x1B            AVC                                     570.537                 14,977                  1,068,144,807   5,815,128
00005.M2TS      4352 (0x1100)   0x80            LPCM            eng (English)           570.537                 1,543                   110,012,644     684,726
00005.M2TS      4608 (0x1200)   0x90            PGS             eng (English)           570.537                 0                       165             8
00005.M2TS      4609 (0x1201)   0x90            PGS             fra (French)            570.537                 83                      5,889,984       33,078
00005.M2TS      4610 (0x1202)   0x90            PGS             deu (German)            570.537                 86                      6,112,942       34,290
00005.M2TS      4611 (0x1203)   0x90            PGS             spa (Spanish)           570.537                 90                      6,402,924       35,863

Код:
<---- END FORUMS PASTE ---->
QUICK SUMMARY:
Disc Label: LES TROYENS
Disc Size: 41,356,106,126 bytes
Protection: AACS
Playlist: 00003.MPLS
Size: 1,271,470,080 bytes
Length: 0:09:30.603
Total Bitrate: 17.83 Mbps
Video: MPEG-4 AVC Video / 14976 kbps / 1080i / 29.970 fps / 16:9 / High Profile 4.1
Audio: English / LPCM Audio / 2.0 / 48 kHz /  1536 kbps / 16-bit
Subtitle: English / 0.002 kbps
Subtitle: French / 82.579 kbps
Subtitle: German / 85.705 kbps
Subtitle: Spanish / 89.771 kbps
********************
PLAYLIST: 00004.MPLS
********************
<--- BEGIN FORUMS PASTE --->
Код:
Код:
                                                                                Total   Video
Title                                                           Codec   Length  Movie Size      Disc Size       Bitrate Bitrate Main Audio Track                          Secondary Audio Track
-----                                                           ------  ------- --------------  --------------  ------- ------- ------------------                        ---------------------
00004.MPLS                                                      AVC     0:01:40 137,951,232     41,356,106,126  10.97   10.44

Код:
Код:
DISC INFO:
Disc Label:     LES TROYENS
Disc Size:      41,356,106,126 bytes
Protection:     AACS
BDInfo:         0.7.5.5
PLAYLIST REPORT:
Name:                   00004.MPLS
Length:                 0:01:40.600 (h:m:s.ms)
Size:                   137,951,232 bytes
Total Bitrate:          10.97 Mbps
VIDEO:
Codec                   Bitrate             Description
-----                   -------             -----------
MPEG-4 AVC Video        10437 kbps          1080i / 29.970 fps / 16:9 / High Profile 4.1
FILES:
Name            Time In         Length          Size            Total Bitrate
----            -------         ------          ----            -------------
00006.M2TS      0:00:00.000     0:01:40.600     137,951,232     10,970
CHAPTERS:
Number          Time In         Length          Avg Video Rate  Max 1-Sec Rate  Max 1-Sec Time  Max 5-Sec Rate  Max 5-Sec Time  Max 10Sec Rate  Max 10Sec Time  Avg Frame Size  Max Frame Size  Max Frame Time
------          -------         ------          --------------  --------------  --------------  --------------  --------------  --------------  --------------  --------------  --------------  --------------
1               0:00:00.000     0:00:09.175     13,871 kbps     26,828 kbps     00:00:07.607    13,950 kbps     00:00:04.170    0 kbps          00:00:00.000    57,645 bytes    761,028 bytes   00:00:07.006
2               0:00:09.175     0:00:07.006     10,821 kbps     22,488 kbps     00:00:14.080    12,842 kbps     00:00:11.177    0 kbps          00:00:00.000    45,131 bytes    781,877 bytes   00:00:16.182
3               0:00:16.182     0:00:07.007     10,769 kbps     22,894 kbps     00:00:22.188    13,102 kbps     00:00:18.184    0 kbps          00:00:00.000    44,915 bytes    643,509 bytes   00:00:23.189
4               0:00:23.189     0:00:07.006     10,331 kbps     22,724 kbps     00:00:29.195    12,577 kbps     00:00:25.191    0 kbps          00:00:00.000    43,091 bytes    703,774 bytes   00:00:30.196
5               0:00:30.196     0:00:07.007     9,686 kbps      20,751 kbps     00:00:35.168    11,617 kbps     00:00:32.165    0 kbps          00:00:00.000    40,397 bytes    703,774 bytes   00:00:31.197
6               0:00:37.203     0:00:07.006     11,358 kbps     24,815 kbps     00:00:42.108    13,584 kbps     00:00:39.205    0 kbps          00:00:00.000    47,374 bytes    765,514 bytes   00:00:40.206
7               0:00:44.210     0:00:07.007     10,347 kbps     23,664 kbps     00:00:49.749    12,500 kbps     00:00:46.179    0 kbps          00:00:00.000    43,157 bytes    427,393 bytes   00:00:48.214
8               0:00:51.217     0:00:07.006     9,736 kbps      23,177 kbps     00:00:57.223    11,998 kbps     00:00:53.219    0 kbps          00:00:00.000    40,605 bytes    690,993 bytes   00:00:58.224
9               0:00:58.224     0:00:07.007     10,502 kbps     22,886 kbps     00:01:03.630    12,741 kbps     00:01:00.193    0 kbps          00:00:00.000    43,800 bytes    690,995 bytes   00:01:00.226
10              0:01:05.231     0:00:07.006     10,860 kbps     22,585 kbps     00:01:10.737    12,824 kbps     00:01:07.200    0 kbps          00:00:00.000    45,295 bytes    746,623 bytes   00:01:07.233
11              0:01:12.238     0:00:07.007     9,678 kbps      20,526 kbps     00:01:17.911    11,462 kbps     00:01:14.207    0 kbps          00:00:00.000    40,367 bytes    759,994 bytes   00:01:15.241
12              0:01:19.245     0:00:07.006     7,829 kbps      20,485 kbps     00:01:25.251    9,826 kbps      00:01:21.247    0 kbps          00:00:00.000    32,653 bytes    778,920 bytes   00:01:26.252
13              0:01:26.252     0:00:07.006     10,313 kbps     21,973 kbps     00:01:31.257    12,353 kbps     00:01:28.221    0 kbps          00:00:00.000    43,016 bytes    778,920 bytes   00:01:27.253
14              0:01:33.259     0:00:07.340     9,021 kbps      23,540 kbps     00:01:38.164    11,511 kbps     00:01:35.128    0 kbps          00:00:00.000    37,799 bytes    684,515 bytes   00:01:38.264
STREAM DIAGNOSTICS:
File            PID             Type            Codec           Language                Seconds                 Bitrate                 Bytes           Packets
----            ---             ----            -----           --------                --------------          --------------          -------------   -----
00006.M2TS      4113 (0x1011)   0x1B            AVC                                     100.467                 10,451                  131,246,158     715,119

Код:
<---- END FORUMS PASTE ---->
QUICK SUMMARY:
Disc Label: LES TROYENS
Disc Size: 41,356,106,126 bytes
Protection: AACS
Playlist: 00004.MPLS
Size: 137,951,232 bytes
Length: 0:01:40.600
Total Bitrate: 10.97 Mbps
Video: MPEG-4 AVC Video / 10437 kbps / 1080i / 29.970 fps / 16:9 / High Profile 4.1
********************
PLAYLIST: 00000.MPLS
********************
<--- BEGIN FORUMS PASTE --->
Код:
Код:
                                                                                Total   Video
Title                                                           Codec   Length  Movie Size      Disc Size       Bitrate Bitrate Main Audio Track                          Secondary Audio Track
-----                                                           ------  ------- --------------  --------------  ------- ------- ------------------                        ---------------------
00000.MPLS                                                      AVC     0:00:20 33,853,440      41,356,106,126  12.92   12.31

Код:
Код:
DISC INFO:
Disc Label:     LES TROYENS
Disc Size:      41,356,106,126 bytes
Protection:     AACS
BDInfo:         0.7.5.5
PLAYLIST REPORT:
Name:                   00000.MPLS
Length:                 0:00:20.954 (h:m:s.ms)
Size:                   33,853,440 bytes
Total Bitrate:          12.92 Mbps
VIDEO:
Codec                   Bitrate             Description
-----                   -------             -----------
MPEG-4 AVC Video        12310 kbps          1080i / 29.970 fps / 16:9 / High Profile 4.1
FILES:
Name            Time In         Length          Size            Total Bitrate
----            -------         ------          ----            -------------
00000.M2TS      0:00:00.000     0:00:14.014     16,410,624      9,368
00001.M2TS      0:00:14.014     0:00:06.940     17,442,816      20,106
CHAPTERS:
Number          Time In         Length          Avg Video Rate  Max 1-Sec Rate  Max 1-Sec Time  Max 5-Sec Rate  Max 5-Sec Time  Max 10Sec Rate  Max 10Sec Time  Avg Frame Size  Max Frame Size  Max Frame Time
------          -------         ------          --------------  --------------  --------------  --------------  --------------  --------------  --------------  --------------  --------------  --------------
1               0:00:00.000     0:00:14.014     8,907 kbps      10,475 kbps     00:00:07.807    10,095 kbps     00:00:03.803    10,014 kbps     00:00:02.435    37,063 bytes    101,117 bytes   00:00:08.008
2               0:00:14.014     0:00:06.940     19,181 kbps     20,000 kbps     00:00:14.247    20,000 kbps     00:00:14.247    0 kbps          00:00:00.000    80,387 bytes    83,416 bytes    00:00:14.280
STREAM DIAGNOSTICS:
File            PID             Type            Codec           Language                Seconds                 Bitrate                 Bytes           Packets
----            ---             ----            -----           --------                --------------          --------------          -------------   -----
00000.M2TS      4113 (0x1011)   0x1B            AVC                                     13.914                  8,970                   15,600,995      84,981
00001.M2TS      4113 (0x1011)   0x1B            AVC                                     6.874                   19,370                  16,642,506      90,584

Код:
<---- END FORUMS PASTE ---->
QUICK SUMMARY:
Disc Label: LES TROYENS
Disc Size: 41,356,106,126 bytes
Protection: AACS
Playlist: 00000.MPLS
Size: 33,853,440 bytes
Length: 0:00:20.954
Total Bitrate: 12.92 Mbps
Video: MPEG-4 AVC Video / 12310 kbps / 1080i / 29.970 fps / 16:9 / High Profile 4.1
Код:
Disc Label:     LES TROYENS D2
Disc Size:      42,516,262,545 bytes
Protection:     AACS
BDInfo:         0.7.5.5
Notes:
BDINFO HOME:
  Cinema Squid (old)
    [url=http://www.cinemasquid.com/blu-ray/tools/bdinfo]http://www.cinemasquid.com/blu-ray/tools/bdinfo[/url]
  UniqProject GitHub (new)
   [url=https://github.com/UniqProject/BDInfo]https://github.com/UniqProject/BDInfo[/url]
INCLUDES FORUMS REPORT FOR:
  AVS Forum Blu-ray Audio and Video Specifications Thread
    [url=http://www.avsforum.com/avs-vb/showthread.php?t=1155731]http://www.avsforum.com/avs-vb/showthread.php?t=1155731[/url]
********************
PLAYLIST: 00002.MPLS
********************
<--- BEGIN FORUMS PASTE --->
Код:
Код:
                                                                                Total   Video
Title                                                           Codec   Length  Movie Size      Disc Size       Bitrate Bitrate Main Audio Track                          Secondary Audio Track
-----                                                           ------  ------- --------------  --------------  ------- ------- ------------------                        ---------------------
00002.MPLS                                                      AVC     2:37:52 42,333,874,176  42,516,262,545  35.75   27.97   DTS-HD Master 5.0 3549Kbps (48kHz/24-bit) LPCM 2.0 2304Kbps (48kHz/24-bit)

Код:
Код:
DISC INFO:
Disc Label:     LES TROYENS D2
Disc Size:      42,516,262,545 bytes
Protection:     AACS
BDInfo:         0.7.5.5
PLAYLIST REPORT:
Name:                   00002.MPLS
Length:                 2:37:52.496 (h:m:s.ms)
Size:                   42,333,874,176 bytes
Total Bitrate:          35.75 Mbps
VIDEO:
Codec                   Bitrate             Description
-----                   -------             -----------
MPEG-4 AVC Video        27967 kbps          1080i / 29.970 fps / 16:9 / High Profile 4.1
AUDIO:
Codec                           Language        Bitrate         Description
-----                           --------        -------         -----------
DTS-HD Master Audio             French          3549 kbps       5.0 / 48 kHz /  3549 kbps / 24-bit (DTS Core: 5.0 / 48 kHz /  1509 kbps / 24-bit)
LPCM Audio                      French          2304 kbps       2.0 / 48 kHz /  2304 kbps / 24-bit
SUBTITLES:
Codec                           Language        Bitrate         Description
-----                           --------        -------         -----------
Presentation Graphics           English         15.000 kbps
Presentation Graphics           French          14.996 kbps
Presentation Graphics           German          17.574 kbps
Presentation Graphics           Spanish         15.343 kbps
FILES:
Name            Time In         Length          Size            Total Bitrate
----            -------         ------          ----            -------------
00003.M2TS      0:00:00.000     2:37:52.496     42,333,874,176  35,753
CHAPTERS:
Number          Time In         Length          Avg Video Rate  Max 1-Sec Rate  Max 1-Sec Time  Max 5-Sec Rate  Max 5-Sec Time  Max 10Sec Rate  Max 10Sec Time  Avg Frame Size  Max Frame Size  Max Frame Time
------          -------         ------          --------------  --------------  --------------  --------------  --------------  --------------  --------------  --------------  --------------  --------------
1               0:00:00.000     0:02:02.589     28,686 kbps     57,183 kbps     00:00:01.067    36,649 kbps     00:00:01.034    31,944 kbps     00:00:01.034    119,614 bytes   372,731 bytes   00:00:01.634
2               0:02:02.589     0:02:03.523     28,609 kbps     46,651 kbps     00:03:53.299    32,811 kbps     00:03:51.931    30,696 kbps     00:03:46.859    119,324 bytes   332,382 bytes   00:03:53.366
3               0:04:06.112     0:07:08.995     28,280 kbps     46,771 kbps     00:07:35.221    34,227 kbps     00:07:31.517    31,298 kbps     00:07:28.080    117,950 bytes   385,673 bytes   00:11:15.107
4               0:11:15.107     0:01:08.968     28,332 kbps     47,454 kbps     00:11:15.107    31,172 kbps     00:11:44.837    30,355 kbps     00:11:45.037    118,167 bytes   350,644 bytes   00:11:15.207
5               0:12:24.076     0:01:13.706     29,025 kbps     40,662 kbps     00:12:24.076    31,191 kbps     00:12:53.005    30,408 kbps     00:12:48.601    121,060 bytes   369,552 bytes   00:13:37.783
6               0:13:37.783     0:01:49.676     28,205 kbps     45,709 kbps     00:13:37.783    30,920 kbps     00:13:37.783    29,374 kbps     00:13:37.783    117,639 bytes   436,972 bytes   00:15:27.459
7               0:15:27.459     0:02:51.237     28,875 kbps     49,599 kbps     00:15:44.643    32,919 kbps     00:17:01.120    31,805 kbps     00:16:56.115    120,433 bytes   432,033 bytes   00:15:44.677
8               0:18:18.697     0:11:00.493     27,538 kbps     49,825 kbps     00:26:36.428    32,554 kbps     00:27:36.721    30,287 kbps     00:27:32.117    114,855 bytes   406,925 bytes   00:26:36.561
9               0:29:19.190     0:00:27.460     27,593 kbps     45,872 kbps     00:29:19.190    30,807 kbps     00:29:19.190    28,434 kbps     00:29:19.190    115,086 bytes   371,513 bytes   00:29:19.224
10              0:29:46.651     0:01:55.582     27,479 kbps     45,210 kbps     00:30:31.863    32,398 kbps     00:30:29.561    29,557 kbps     00:30:24.556    114,612 bytes   332,265 bytes   00:31:42.233
11              0:31:42.233     0:02:15.802     27,565 kbps     44,032 kbps     00:33:46.791    31,883 kbps     00:33:46.457    29,880 kbps     00:33:38.516    114,971 bytes   351,093 bytes   00:33:58.036
12              0:33:58.036     0:03:32.745     27,578 kbps     40,993 kbps     00:33:58.036    30,781 kbps     00:37:03.821    29,525 kbps     00:34:53.925    115,022 bytes   376,015 bytes   00:35:13.945
13              0:37:30.781     0:07:45.665     27,705 kbps     45,482 kbps     00:38:44.021    33,443 kbps     00:40:46.677    30,539 kbps     00:44:37.574    115,552 bytes   355,482 bytes   00:38:01.912
14              0:45:16.447     0:09:35.474     28,419 kbps     57,956 kbps     00:45:17.181    36,790 kbps     00:45:17.114    34,466 kbps     00:45:17.114    118,533 bytes   403,422 bytes   00:45:17.347
15              0:54:51.921     0:03:15.862     27,376 kbps     44,421 kbps     00:56:02.959    32,116 kbps     00:55:59.889    29,760 kbps     00:55:55.618    114,179 bytes   328,514 bytes   00:56:03.126
16              0:58:07.784     0:04:09.949     27,736 kbps     43,134 kbps     00:58:07.784    32,029 kbps     01:01:29.686    29,939 kbps     01:01:24.480    115,682 bytes   292,679 bytes   01:01:32.321
17              1:02:17.734     0:01:24.617     27,901 kbps     47,324 kbps     01:02:18.735    31,928 kbps     01:02:17.733    29,620 kbps     01:03:20.830    116,369 bytes   420,845 bytes   01:03:42.351
18              1:03:42.351     0:04:17.557     29,059 kbps     48,318 kbps     01:03:42.351    33,528 kbps     01:04:48.451    31,707 kbps     01:04:48.317    121,201 bytes   403,737 bytes   01:03:42.385
19              1:07:59.909     0:04:59.565     28,913 kbps     48,057 kbps     01:07:59.909    33,429 kbps     01:12:22.404    31,952 kbps     01:11:13.736    120,592 bytes   404,290 bytes   01:12:23.906
20              1:12:59.475     0:01:17.310     28,691 kbps     35,308 kbps     01:13:52.694    31,130 kbps     01:13:15.324    30,369 kbps     01:13:43.585    119,666 bytes   306,758 bytes   01:13:16.792
21              1:14:16.785     0:01:45.638     27,881 kbps     40,900 kbps     01:14:40.542    32,467 kbps     01:14:25.661    30,881 kbps     01:15:27.556    116,287 bytes   321,458 bytes   01:16:02.424
22              1:16:02.424     0:04:25.264     27,653 kbps     41,991 kbps     01:16:02.424    30,520 kbps     01:19:15.550    29,964 kbps     01:17:24.239    115,335 bytes   342,904 bytes   01:20:27.689
23              1:20:27.689     0:05:12.045     27,678 kbps     43,855 kbps     01:20:27.689    31,701 kbps     01:22:28.043    29,357 kbps     01:22:22.904    115,439 bytes   302,367 bytes   01:20:27.789
24              1:25:39.734     0:03:51.998     27,835 kbps     43,007 kbps     01:28:26.501    32,059 kbps     01:25:53.181    30,139 kbps     01:25:48.176    116,095 bytes   318,240 bytes   01:29:31.733
25              1:29:31.733     0:09:07.847     27,832 kbps     45,505 kbps     01:37:10.991    32,985 kbps     01:38:27.434    30,907 kbps     01:33:18.159    116,085 bytes   336,729 bytes   01:37:11.058
26              1:38:39.580     0:05:28.661     27,776 kbps     55,936 kbps     01:38:40.080    37,503 kbps     01:38:40.080    34,440 kbps     01:38:40.047    115,847 bytes   354,145 bytes   01:39:36.637
27              1:44:08.242     0:02:19.739     28,039 kbps     41,872 kbps     01:45:12.139    31,863 kbps     01:45:09.936    30,294 kbps     01:45:09.069    116,948 bytes   338,456 bytes   01:44:46.213
28              1:46:27.981     0:01:45.839     27,918 kbps     38,305 kbps     01:46:27.981    31,234 kbps     01:48:00.006    29,378 kbps     01:47:59.906    116,443 bytes   273,096 bytes   01:47:48.695
29              1:48:13.820     0:01:46.105     27,693 kbps     37,184 kbps     01:48:14.020    29,869 kbps     01:48:13.820    28,560 kbps     01:48:46.753    115,504 bytes   307,566 bytes   01:49:59.926
30              1:49:59.926     0:04:17.323     27,634 kbps     44,841 kbps     01:53:26.733    31,864 kbps     01:53:23.296    29,916 kbps     01:53:18.291    115,255 bytes   317,817 bytes   01:49:59.960
31              1:54:17.250     0:02:09.996     27,842 kbps     37,838 kbps     01:55:20.346    30,889 kbps     01:55:17.477    29,789 kbps     01:55:12.472    116,123 bytes   278,251 bytes   01:54:58.892
32              1:56:27.246     0:02:05.358     27,803 kbps     34,619 kbps     01:57:28.274    29,809 kbps     01:56:48.134    28,937 kbps     01:56:44.831    115,960 bytes   335,573 bytes   01:57:28.408
33              1:58:32.605     0:04:56.295     27,780 kbps     49,579 kbps     02:01:55.508    34,062 kbps     02:01:52.038    30,955 kbps     02:01:54.473    115,864 bytes   425,165 bytes   02:02:28.207
34              2:03:28.901     0:02:51.171     27,533 kbps     45,927 kbps     02:03:28.901    30,767 kbps     02:03:28.901    28,895 kbps     02:05:18.210    114,835 bytes   342,814 bytes   02:03:28.934
35              2:06:20.072     0:04:29.936     27,704 kbps     46,053 kbps     02:08:31.303    32,168 kbps     02:07:31.343    29,891 kbps     02:07:25.871    115,550 bytes   361,263 bytes   02:08:31.370
36              2:10:50.008     0:03:08.354     27,907 kbps     50,468 kbps     02:13:52.424    32,647 kbps     02:13:49.955    29,969 kbps     02:13:44.783    116,394 bytes   441,095 bytes   02:13:52.491
37              2:13:58.363     0:03:25.705     27,551 kbps     45,518 kbps     02:13:58.363    30,136 kbps     02:13:58.363    28,190 kbps     02:16:23.575    114,910 bytes   372,038 bytes   02:13:58.463
38              2:17:24.069     0:04:39.946     27,410 kbps     45,596 kbps     02:17:24.069    30,690 kbps     02:19:54.652    29,647 kbps     02:19:16.815    114,321 bytes   388,293 bytes   02:17:24.102
39              2:22:04.015     0:03:43.056     27,561 kbps     48,268 kbps     02:23:26.464    32,837 kbps     02:23:23.528    30,314 kbps     02:23:18.523    114,954 bytes   369,124 bytes   02:23:26.531
40              2:25:47.071     0:12:05.424     28,463 kbps     48,858 kbps     02:25:48.473    34,711 kbps     02:37:38.816    32,947 kbps     02:37:18.695    118,720 bytes   527,540 bytes   02:32:20.698
STREAM DIAGNOSTICS:
File            PID             Type            Codec           Language                Seconds                 Bitrate                 Bytes           Packets
----            ---             ----            -----           --------                --------------          --------------          -------------   -----
00003.M2TS      4113 (0x1011)   0x1B            AVC                                     9472.396                27,967                  33,114,342,986  180,277,118
00003.M2TS      4352 (0x1100)   0x86            DTS-HD MA       fra (French)            9472.396                3,549                   4,202,457,396   24,315,695
00003.M2TS      4353 (0x1101)   0x80            LPCM            fra (French)            9472.396                2,310                   2,735,658,000   15,156,000
00003.M2TS      4608 (0x1200)   0x90            PGS             eng (English)           9472.396                15                      17,761,508      100,970
00003.M2TS      4609 (0x1201)   0x90            PGS             fra (French)            9472.396                15                      17,756,495      100,991
00003.M2TS      4610 (0x1202)   0x90            PGS             deu (German)            9472.396                18                      20,809,148      117,592
00003.M2TS      4611 (0x1203)   0x90            PGS             spa (Spanish)           9472.396                15                      18,166,502      103,212

Код:
<---- END FORUMS PASTE ---->
QUICK SUMMARY:
Disc Label: LES TROYENS D2
Disc Size: 42,516,262,545 bytes
Protection: AACS
Playlist: 00002.MPLS
Size: 42,333,874,176 bytes
Length: 2:37:52.496
Total Bitrate: 35.75 Mbps
Video: MPEG-4 AVC Video / 27967 kbps / 1080i / 29.970 fps / 16:9 / High Profile 4.1
Audio: French / DTS-HD Master Audio / 5.0 / 48 kHz /  3549 kbps / 24-bit (DTS Core: 5.0 / 48 kHz /  1509 kbps / 24-bit)
Audio: French / LPCM Audio / 2.0 / 48 kHz /  2304 kbps / 24-bit
Subtitle: English / 15.000 kbps
Subtitle: French / 14.996 kbps
Subtitle: German / 17.574 kbps
Subtitle: Spanish / 15.343 kbps
********************
PLAYLIST: 00000.MPLS
********************
<--- BEGIN FORUMS PASTE --->
Код:
Код:
                                                                                Total   Video
Title                                                           Codec   Length  Movie Size      Disc Size       Bitrate Bitrate Main Audio Track                          Secondary Audio Track
-----                                                           ------  ------- --------------  --------------  ------- ------- ------------------                        ---------------------
00000.MPLS                                                      AVC     0:00:20 33,853,440      42,516,262,545  12.92   12.31

Код:
Код:
DISC INFO:
Disc Label:     LES TROYENS D2
Disc Size:      42,516,262,545 bytes
Protection:     AACS
BDInfo:         0.7.5.5
PLAYLIST REPORT:
Name:                   00000.MPLS
Length:                 0:00:20.954 (h:m:s.ms)
Size:                   33,853,440 bytes
Total Bitrate:          12.92 Mbps
VIDEO:
Codec                   Bitrate             Description
-----                   -------             -----------
MPEG-4 AVC Video        12310 kbps          1080i / 29.970 fps / 16:9 / High Profile 4.1
FILES:
Name            Time In         Length          Size            Total Bitrate
----            -------         ------          ----            -------------
00004.M2TS      0:00:00.000     0:00:14.014     16,410,624      9,368
00005.M2TS      0:00:14.014     0:00:06.940     17,442,816      20,106
CHAPTERS:
Number          Time In         Length          Avg Video Rate  Max 1-Sec Rate  Max 1-Sec Time  Max 5-Sec Rate  Max 5-Sec Time  Max 10Sec Rate  Max 10Sec Time  Avg Frame Size  Max Frame Size  Max Frame Time
------          -------         ------          --------------  --------------  --------------  --------------  --------------  --------------  --------------  --------------  --------------  --------------
1               0:00:00.000     0:00:14.014     8,907 kbps      10,475 kbps     00:00:07.807    10,095 kbps     00:00:03.803    10,014 kbps     00:00:02.435    37,063 bytes    101,117 bytes   00:00:08.008
2               0:00:14.014     0:00:06.940     19,181 kbps     20,000 kbps     00:00:14.247    20,000 kbps     00:00:14.247    0 kbps          00:00:00.000    80,387 bytes    83,416 bytes    00:00:14.280
STREAM DIAGNOSTICS:
File            PID             Type            Codec           Language                Seconds                 Bitrate                 Bytes           Packets
----            ---             ----            -----           --------                --------------          --------------          -------------   -----
00004.M2TS      4113 (0x1011)   0x1B            AVC                                     13.914                  8,970                   15,600,995      84,981
00005.M2TS      4113 (0x1011)   0x1B            AVC                                     6.874                   19,370                  16,642,506      90,584

Код:
<---- END FORUMS PASTE ---->
QUICK SUMMARY:
Disc Label: LES TROYENS D2
Disc Size: 42,516,262,545 bytes
Protection: AACS
Playlist: 00000.MPLS
Size: 33,853,440 bytes
Length: 0:00:20.954
Total Bitrate: 12.92 Mbps
Video: MPEG-4 AVC Video / 12310 kbps / 1080i / 29.970 fps / 16:9 / High Profile 4.1
#777
Правила, инструкции, FAQ!!!
Торрент  Добавлен [05 июн 2020, 23:12] Скачать торрент Магнет ссылка
Скачать торрент
[ Размер 396.26 КБ / Просмотров 4 ]

Статус
Проверен 
 
Размер  78.11 ГБ
Приватный: Нет (DHT включён)
.torrent скачан  0
 


     Отправить личное сообщение
   
Страница 1 из 1
Показать сообщения за:  Поле сортировки  
Начать новую тему Ответить на тему


Сейчас этот форум просматривают: нет зарегистрированных пользователей и гости: 0


Вы не можете начинать темы
Вы не можете отвечать на сообщения
Вы не можете редактировать свои сообщения
Вы не можете удалять свои сообщения
Вы не можете добавлять вложения

Перейти:  
cron