Начать новую тему Ответить на тему
Статистика раздачи
Размер: 562.3 МБ | Добавлен: 26 июн 2020, 19:46 | Скачали: 0
Сидеров: 0  [0 байт/сек]    Личеров: 0  [0 байт/сек]
Пред. тема | След. тема 

Автор
Сообщение

СообщениеДобавлено: 26 июн 2020, 19:46 

Ответить с цитатой 

Unter Null - The Failure Epiphany
Жанр: Harsh EBM/Industrial
Год выпуска диска: 2005
Страна: USA
Производитель диска: Союз. 2008
Аудио кодек: FLAC
Тип рипа: tracks+.cue
Битрейт аудио: lossless
Продолжительность: 58:56
Источник: Саморип с лицензии
Трэклист:
1. Bloodlust (4:42)
2. Martyr (4:09)
3. Your Nightmare (album version) (4:50)
4. Feed The Lie (4:46)
5. Destroy Me (3:41)
6. The Failure Epiphany (3:42)
7. Sick Fuck (album version) (3:36)
8. Scilence (4:42)
9. You Have Fallen From Grace (6:28)
10. Stray (4:58)
11. The Hook (4:37)
12. Zombieboy (3:50)
13. Desire (4:55)
Доп. информация:
Exact Audio Copy V0.99 prebeta 4 from 23. January 2008
EAC extraction logfile from 7. August 2008, 8:59
Unter Null / The Failure Epiphany
Used drive : PIONEER DVD-RW DVR-212 Adapter: 5 ID: 0
Read mode : Secure
Utilize accurate stream : Yes
Defeat audio cache : Yes
Make use of C2 pointers : No
Read offset correction : 48
Overread into Lead-In and Lead-Out : No
Fill up missing offset samples with silence : Yes
Delete leading and trailing silent blocks : No
Null samples used in CRC calculations : Yes
Used interface : Native Win32 interface for Win NT & 2000
Used output format : Internal WAV Routines
Sample format : 44.100 Hz; 16 Bit; Stereo
TOC of the extracted CD
Track | Start | Length | Start sector | End sector
---------------------------------------------------------
1 | 0:00.00 | 4:42.54 | 0 | 21203
2 | 4:42.54 | 4:09.40 | 21204 | 39918
3 | 8:52.19 | 4:50.69 | 39919 | 61737
4 | 13:43.13 | 4:46.00 | 61738 | 83187
5 | 18:29.13 | 3:41.52 | 83188 | 99814
6 | 22:10.65 | 3:42.73 | 99815 | 116537
7 | 25:53.63 | 3:36.55 | 116538 | 132792
8 | 29:30.43 | 4:42.24 | 132793 | 153966
9 | 34:12.67 | 6:28.23 | 153967 | 183089
10 | 40:41.15 | 4:58.32 | 183090 | 205471
11 | 45:39.47 | 4:37.25 | 205472 | 226271
12 | 50:16.72 | 3:50.43 | 226272 | 243564
13 | 54:07.40 | 4:55.29 | 243565 | 265718
Range status and errors
Selected range
Filename C:\Documents and Settings\hiekka\Рабочий стол\eac rips\Unter Null\2005 The Failure Epiphany\Unter Null - The Failure Epiphany.wav
Peak level 100.0 %
Range quality 100.0 %
Test CRC FC45B736
Copy CRC FC45B736
Copy OK
No errors occurred
AccurateRip summary
Track 1 cannot be verified as accurate (confidence 5) [18E1D5B3], AccurateRip returned [2651EEC3]
Track 2 cannot be verified as accurate (confidence 5) [97E1FD4D], AccurateRip returned [7566B925]
Track 3 cannot be verified as accurate (confidence 5) [993107FF], AccurateRip returned [0881F307]
Track 4 cannot be verified as accurate (confidence 5) [ADB9BC53], AccurateRip returned [0375CD73]
Track 5 cannot be verified as accurate (confidence 5) [6276714A], AccurateRip returned [12D84A5A]
Track 6 cannot be verified as accurate (confidence 5) [5E27953C], AccurateRip returned [78D15D44]
Track 7 cannot be verified as accurate (confidence 5) [F3BF56C6], AccurateRip returned [2EB20D96]
Track 8 cannot be verified as accurate (confidence 5) [BA19A145], AccurateRip returned [A183B16D]
Track 9 cannot be verified as accurate (confidence 5) [CF2A54F4], AccurateRip returned [4F8F6E64]
Track 10 cannot be verified as accurate (confidence 5) [F740F8FC], AccurateRip returned [E5735D74]
Track 11 cannot be verified as accurate (confidence 5) [9B3C9089], AccurateRip returned [28D47BB1]
Track 12 cannot be verified as accurate (confidence 5) [1A7BE9E4], AccurateRip returned [C09EC7CC]
Track 13 cannot be verified as accurate (confidence 5) [9F8CE5B8], AccurateRip returned [17DB56F0]
No tracks could be verified as accurate
You may have a different pressing from the one(s) in the database
End of status report
Загадочная американская артистка ЭРИКА ДАНХЭМ (ERICA DUNHAM), более известная как UNTER NULL, первым делом поразила индустриальную публику своими кровопролитными концертными шоу. Затем она как смертельный ураган ворвалась в сугубо мужской мир Harsh EBM, вселяя животный страх и завораживая своим искаженным вокалом и фирменным звучанием, родившимся в результате слияния взрывного транса и свирепого industrial. Долгожданный дебютный альбом "THE FAILURE EPIPHANY" (2007) был записан в сиэттлской студии Эрики и сведен в Бельгии студийным гуру LEN LEMEIRE (IMPLANT, ANNE CLARK, DUNKELWERK). Безусловные клубные хиты "Your Nightmare" и "Sick F*ck" взрывают мозг смесью из злобы, ярости и мести. Если вы обожаете SUICIDE COMMANDO, то вам, несомненно, придется по вкусу его женский вариант! (взято с http://soundcheck.ru)
http://www.discogs.com/release/1404669
http://www.myspace.com/unternull
http://www.unter-null.net/
127м сканов
Правила, инструкции, FAQ!!!
Торрент  Добавлен [26 июн 2020, 19:46] Скачать торрент Магнет ссылка
Скачать торрент
[ Размер 12.62 КБ / Просмотров 10 ]

Статус
Проверен 
 
Размер  562.3 МБ
Приватный: Нет (DHT включён)
.torrent скачан  0
 


     Отправить личное сообщение
   
Страница 1 из 1
Показать сообщения за:  Поле сортировки  
Начать новую тему Ответить на тему


Сейчас этот форум просматривают: нет зарегистрированных пользователей и гости: 1


Вы не можете начинать темы
Вы не можете отвечать на сообщения
Вы не можете редактировать свои сообщения
Вы не можете удалять свои сообщения
Вы не можете добавлять вложения

Перейти:  
cron