Начать новую тему Ответить на тему
Статистика раздачи
Размер: 256.42 МБ | Добавлен: 26 мар 2019, 22:37 | Скачали: 2
Сидеров: 3  [0 байт/сек]    Личеров: 0  [0 байт/сек]
Пред. тема | След. тема 

Автор
Сообщение

СообщениеДобавлено: 26 мар 2019, 22:37 

Ответить с цитатой 

Rockets / Future Woman
Жанр: Hard Rock, Electronic
Страна-производитель диска: Россия
Год издания диска: 1996
Издатель (лейбл): KOJA Records
Номер по каталогу: KJCD034
Страна: France
Аудио кодек: FLAC (*.flac)
Тип рипа: image+.cue
Битрейт аудио: lossless
Продолжительность: 00:40:44
Источник (релизер): Рип CD
Наличие сканов в содержимом раздачи: да
Доп. информация: Бутлег (См. коллекцию бутлегов).
The Tracks Remastered At Phonocomp Studio. This Compilations KOJA Records.
Licensed From Dig It Int'I S.R.L. Via Fantoli 15 - 20138 Milano (Italy).
Треклист:
01. Future Woman [00:03:41]
02. Galactica [00:04:33]
03. Anastasis [00:04:36]
04. Future Woman (Long Version) [00:05:59]
05. Atomic [00:04:03]
06. Ideomatic [00:04:16]
07. Radiate [00:04:20]
08. Apache [00:04:16]
09. Phrophesy [00:04:56]
Код:
Exact Audio Copy V0.99 prebeta 5 from 4. May 2009
Отчёт EAC об извлечении, выполненном 17. октября 2010, 16:03
Rockets / Future Woman
Дисковод: Optiarc DVD RW AD-7203A   Adapter: 1  ID: 0
Режим чтения                 : Достоверность
Использование точного потока : Да
Отключение кэша аудио        : Да
Использование указателей C2  : Нет
Коррекция смещения при чтении                     : 48
Способность читать области Lead-in и Lead-out     : Нет
Заполнение пропущенных сэмплов тишиной            : Да
Удаление блоков с тишиной в начале и конце        : Нет
При вычислениях CRC использовались нулевые сэмплы : Да
Интерфейс                                         : Встроенный Win32-интерфейс для Win NT/2000
Выходной формат          : Пользовательский кодировщик
Выбранный битрейт        : 1024 kBit/s
Качество                 : Высокий
Добавление ID3-тэга      : Да
Утилита сжатия           : C:\Program Files\Exact Audio Copy\FLAC\FLAC.EXE
Дополнительные параметры : -8 -V -T "ARTIST=%a" -T "TITLE=%t" -T "ALBUM=%g" -T "DATE=%y" -T "TRACKNUMBER=%n" -T "GENRE=%m" -T "COMMENT=EAC FLAC -8" %s
TOC извлечённого CD
     Трек |   Старт  | Длительность | Начальный сектор | Конечный сектор
    ---------------------------------------------------------------------
       1  |  0:00.30 |    3:41.46   |          30      |      16650
       2  |  3:42.01 |    4:33.09   |       16651      |      37134
       3  |  8:15.10 |    4:36.66   |       37135      |      57900
       4  | 12:52.01 |    5:59.03   |       57901      |      84828
       5  | 18:51.04 |    4:03.74   |       84829      |     103127
       6  | 22:55.03 |    4:16.07   |      103128      |     122334
       7  | 27:11.10 |    4:20.68   |      122335      |     141902
       8  | 31:32.03 |    4:16.09   |      141903      |     161111
       9  | 35:48.12 |    4:56.58   |      161112      |     183369
Характеристики диапазона извлечения и сообщения об ошибках
Выбранный диапазон
     Имя файла C:\Documents and Settings\Ideomatic\Мои документы\Rockets 1996 ''Future Wuman''\Rockets - Future Woman.wav
     Пиковый уровень 99.0 %
     Качество диапазона 100.0 %
     CRC теста 0D61DA9A
     CRC копии 0D61DA9A
     Копирование... OK
Ошибок не произошло
AccurateRip: сводка
Трек  1  нет в базе данных
Трек  2  нет в базе данных
Трек  3  нет в базе данных
Трек  4  нет в базе данных
Трек  5  нет в базе данных
Трек  6  нет в базе данных
Трек  7  нет в базе данных
Трек  8  нет в базе данных
Трек  9  нет в базе данных
Ни одного трека нет в базе AccurateRip
Конец отчёта

Правила, инструкции, FAQ!!!
Торрент  Добавлен [26 мар 2019, 22:37] Скачать торрент Магнет ссылка
Скачать торрент
[ Размер 11.18 КБ / Просмотров 18 ]

Статус
Проверен 
 
Размер  256.42 МБ
Приватный: Нет (DHT включён)
.torrent скачан  2
 


     Отправить личное сообщение
   
Страница 1 из 1
Показать сообщения за:  Поле сортировки  
Начать новую тему Ответить на тему


Сейчас этот форум просматривают: нет зарегистрированных пользователей и гости: 0


Вы не можете начинать темы
Вы не можете отвечать на сообщения
Вы не можете редактировать свои сообщения
Вы не можете удалять свои сообщения
Вы не можете добавлять вложения

Перейти:  
cron