Начать новую тему Ответить на тему
Статистика раздачи
Размер: 1.66 ГБ | Добавлен: 26 мар 2019, 20:37 | Скачали: 0
Сидеров: 0  [0 байт/сек]    Личеров: 0  [0 байт/сек]
Пред. тема | След. тема 

Автор
Сообщение

СообщениеДобавлено: 26 мар 2019, 20:37 

Ответить с цитатой 

- Vasilis Papakonstantinou -

- Apo Mena To Vasili (4CD) -

Жанр: Greek Rock
Страна-производитель диска: Greece
Год издания диска: 2010
Издатель (лейбл): Minos-EMI
Страна: Greece
Аудиокодек: FLAC (*.flac)
Тип рипа: image+.cue
Битрейт аудио: lossless
Продолжительность: 04:45:28
Источник (релизер): Speedyclick
Наличие сканов в содержимом раздачи: да
Vasilis Papakonstantinou is the most popular rock singer in Greece with a brillant career of more than 40 years. He has a very powerful and expressive voice and has interpreted with unique way songs of Mikis Theodorakis, Manos Loizos, Thanos Mikroutsikos and many other legendary greek composers. In his vast repertoire are included many renditions of well known international hits, to which his superb voice adds a new dimension.
Треклист:
#777Продолжительность: 01:07:29
01. Κι αν είμαι rock - (05:31)
02. Φεύγουν καράβια - (02:40)
03. Οι ψυχές και οι αγάπες - (04:12)
04. Άλλα τα βράδυα - (04:34)
05. Τρίτος παγκόσμιος - (02:49)
06. Χαμένες αγάπες - (05:31)
07. Καμπαρντίνα - (04:43)
08. Φοβάμαι - (06:45)
09. Πρώτη Μάιου - (03:12)
10. Σ' αγαπώ ακόμα (Certe Cose Si Fanno) - (03:50)
11. Βικτωρία - (04:33)
12. Κράτα λίγο ακόμα - (04:18)
13. Σφεντόνα - (04:35)
14. Ελλάς - (04:25)
15. Πάρε με - (03:00)
16. Σ' αγαπώ να προσέχεις - (02:51)
#777Продолжительность: 01:06:09
01. Eνα καράβι - (03:27)
02. Χρόνια πολλά - (04:12)
03. Ο κουρσάρος - (05:46)
04. Έφηβα γεράκια - (03:04)
05. Βράδυ Σαββάτου - (03:43)
06. Με τον Μπομπ Ντύλαν - (03:27)
07. Σεμπαστιάν - (05:12)
08. Από μένα τον Βασίλη - (03:12)
09. Χορεύω - (04:25)
10. Ο μπαγάσας - (04:04)
11. Να γράφεις να τηλεφωνείς - (04:29)
12. Μάλιστα κύριε - (03:14)
13. Μικρές νοθείες - (04:50)
14. Έχω ανάγκη - (04:55)
15. Τσε (live) - (03:42)
16. Γεια σου - (04:27)
#777Продолжительность: 01:07:14
01. Χαιρετίσματα - (04:34)
02. Σ΄ακολουθώ - (03:20)
03. Ο στρατιώτης - (02:40)
04. Όλα από χέρι καμένα - (03:34)
05. Πριν το τέλος - (05:40)
06. Δεν υπάρχω - (04:11)
07. God bless America - (04:09)
08. Για μένα τραγουδώ (Crusader) - (06:02)
09. Κρύψου - (05:01)
10. Μπουμ - (04:39)
11. Στο λιμάνι του Άστερνταμ - (03:52)
12. Αγαπάω κι αδιαφορώ - (03:11)
13. Καταρρέω - (04:03)
14. Στέλλα - (04:04)
15. Δεν έχω άλλη υπομονή - (04:08)
16. Κάντιλακ - (04:06)
#777Продолжительность: 01:04:21
01. Ασε με να κάνω λάθος - (03:56)
02. Οδός Ελλήνων - (04:55)
03. Ένα μπλουζ - (02:58)
04. Δε σηκώνει - (03:20)
05. Άνοιξέ μου να κρυφτώ - (04:19)
06. Φυσάει σκουριά - (03:43)
07. Να κοιμηθούμε αγκαλιά - (03:39)
08. Παράπονα στην Λίνα - (05:43)
09. Φυσάει - (04:59)
10. Τα πουλιά της δυστυχίας - (03:32)
11. Το μαχαίρι - (03:27)
12. Κιθαρίστας του Θεού - (04:22)
13. Στο ντορέ - (03:39)
14. Κράτα λίγο ακόμα - (04:19)
15. Να με κρατάς - (04:19)
16. Καληνύχτα σας - (03:11)
Код:
Exact Audio Copy V1.0 beta 2 from 29. April 2011
EAC extraction logfile from 12. July 2012, 8:53
Βασίλης Παπακωνσταντίνου / Από Μένα Το Βασίλη Cd 1
Used drive  : HL-DT-STDVD-RAM GH22NP21   Adapter: 0  ID: 0
Read mode               : Secure
Utilize accurate stream : Yes
Defeat audio cache      : Yes
Make use of C2 pointers : No
Read offset correction                      : 102
Overread into Lead-In and Lead-Out          : No
Fill up missing offset samples with silence : Yes
Delete leading and trailing silent blocks   : No
Null samples used in CRC calculations       : Yes
Used interface                              : Installed external ASPI interface
Used output format              : User Defined Encoder
Selected bitrate                : 1024 kBit/s
Quality                         : High
Add ID3 tag                     : No
Command line compressor         : D:\Program Files\Exact Audio Copy\FLAC\FLAC.EXE
Additional command line options : -6 -V -T "ARTIST=%artist%" -T "TITLE=%title%" -T "ALBUM=%albumtitle%" -T "DATE=%year%" -T "TRACKNUMBER=%tracknr%" -T "GENRE=%genre%" -T "COMMENT=%comment%" -T "BAND=%albuminterpret%" -T "COMPOSER=%composer%" %haslyrics%--ta
TOC of the extracted CD
     Track |   Start  |  Length  | Start sector | End sector
    ---------------------------------------------------------
        1  |  0:00.00 |  5:31.07 |         0    |    24831
        2  |  5:31.07 |  2:40.25 |     24832    |    36856
        3  |  8:11.32 |  4:12.74 |     36857    |    55830
        4  | 12:24.31 |  4:34.17 |     55831    |    76397
        5  | 16:58.48 |  2:49.22 |     76398    |    89094
        6  | 19:47.70 |  5:31.43 |     89095    |   113962
        7  | 25:19.38 |  4:43.48 |    113963    |   135235
        8  | 30:03.11 |  6:45.71 |    135236    |   165681
        9  | 36:49.07 |  3:12.37 |    165682    |   180118
       10  | 40:01.44 |  3:50.70 |    180119    |   197438
       11  | 43:52.39 |  4:33.34 |    197439    |   217947
       12  | 48:25.73 |  4:18.73 |    217948    |   237370
       13  | 52:44.71 |  4:35.12 |    237371    |   258007
       14  | 57:20.08 |  4:25.59 |    258008    |   277941
       15  | 61:45.67 |  3:00.59 |    277942    |   291500
       16  | 64:46.51 |  2:51.50 |    291501    |   304375
Range status and errors
Selected range
     Filename D:\Παπακωνσταντίνου Βασίλης\Βασίλης Παπακωνσταντίνου - Από Μένα Το Βασίλη Cd 1.wav
     Peak level 96.6 %
     Extraction speed 2.7 X
     Range quality 99.9 %
     Copy CRC 183C2D76
     Copy OK
No errors occurred
AccurateRip summary
Track  1  accurately ripped (confidence 1)  [3A0FB867]  (AR v1)
Track  2  accurately ripped (confidence 1)  [3875C32D]  (AR v1)
Track  3  accurately ripped (confidence 1)  [A9F9852C]  (AR v1)
Track  4  accurately ripped (confidence 1)  [2270F3E7]  (AR v1)
Track  5  accurately ripped (confidence 1)  [C21C08D5]  (AR v1)
Track  6  accurately ripped (confidence 1)  [5301242A]  (AR v1)
Track  7  accurately ripped (confidence 1)  [5EC5E284]  (AR v1)
Track  8  accurately ripped (confidence 1)  [57759F0F]  (AR v1)
Track  9  accurately ripped (confidence 1)  [6C6E16A8]  (AR v1)
Track 10  accurately ripped (confidence 1)  [A74EC711]  (AR v1)
Track 11  accurately ripped (confidence 1)  [F4E13C57]  (AR v1)
Track 12  accurately ripped (confidence 1)  [5E17FB94]  (AR v1)
Track 13  accurately ripped (confidence 1)  [DD2720DE]  (AR v1)
Track 14  accurately ripped (confidence 1)  [DBF31F22]  (AR v1)
Track 15  accurately ripped (confidence 1)  [A6CB815C]  (AR v1)
Track 16  accurately ripped (confidence 1)  [CB0A11FD]  (AR v1)
All tracks accurately ripped
End of status report
==== Log checksum 78DC055A825F7C883175C416465510682F77B5FB88A7522831690B5237B96729 ====[hr][/hr]Exact Audio Copy V1.0 beta 2 from 29. April 2011
EAC extraction logfile from 12. July 2012, 13:32
Βασίλης Παπακωνσταντίνου / Από Μένα Το Βασίλη Cd 2
Used drive  : HL-DT-STDVD-RAM GH22NP21   Adapter: 0  ID: 0
Read mode               : Secure
Utilize accurate stream : Yes
Defeat audio cache      : Yes
Make use of C2 pointers : No
Read offset correction                      : 102
Overread into Lead-In and Lead-Out          : No
Fill up missing offset samples with silence : Yes
Delete leading and trailing silent blocks   : No
Null samples used in CRC calculations       : Yes
Used interface                              : Installed external ASPI interface
Used output format              : User Defined Encoder
Selected bitrate                : 1024 kBit/s
Quality                         : High
Add ID3 tag                     : No
Command line compressor         : D:\Program Files\Exact Audio Copy\FLAC\FLAC.EXE
Additional command line options : -6 -V -T "ARTIST=%artist%" -T "TITLE=%title%" -T "ALBUM=%albumtitle%" -T "DATE=%year%" -T "TRACKNUMBER=%tracknr%" -T "GENRE=%genre%" -T "COMMENT=%comment%" -T "BAND=%albuminterpret%" -T "COMPOSER=%composer%" %haslyrics%--ta
TOC of the extracted CD
     Track |   Start  |  Length  | Start sector | End sector
    ---------------------------------------------------------
        1  |  0:00.00 |  3:27.11 |         0    |    15535
        2  |  3:27.11 |  4:12.37 |     15536    |    34472
        3  |  7:39.48 |  5:46.12 |     34473    |    60434
        4  | 13:25.60 |  3:04.61 |     60435    |    74295
        5  | 16:30.46 |  3:43.07 |     74296    |    91027
        6  | 20:13.53 |  3:27.44 |     91028    |   106596
        7  | 23:41.22 |  5:12.66 |    106597    |   130062
        8  | 28:54.13 |  3:12.31 |    130063    |   144493
        9  | 32:06.44 |  4:25.64 |    144494    |   164432
       10  | 36:32.33 |  4:04.58 |    164433    |   182790
       11  | 40:37.16 |  4:29.44 |    182791    |   203009
       12  | 45:06.60 |  3:14.74 |    203010    |   217633
       13  | 48:21.59 |  4:50.65 |    217634    |   239448
       14  | 53:12.49 |  4:55.66 |    239449    |   261639
       15  | 58:08.40 |  3:42.74 |    261640    |   278363
       16  | 61:51.39 |  4:27.25 |    278364    |   298413
Range status and errors
Selected range
     Filename D:\Παπακωνσταντίνου Βασίλης\Βασίλης Παπακωνσταντίνου - Από Μένα Το Βασίλη Cd 2.wav
     Peak level 99.9 %
     Extraction speed 2.7 X
     Range quality 100.0 %
     Copy CRC 90184BD7
     Copy OK
No errors occurred
AccurateRip summary
Track  1  accurately ripped (confidence 1)  [6CFBE148]  (AR v1)
Track  2  accurately ripped (confidence 1)  [165A7D20]  (AR v1)
Track  3  accurately ripped (confidence 1)  [776DAB1D]  (AR v1)
Track  4  accurately ripped (confidence 1)  [8A5B7E70]  (AR v1)
Track  5  accurately ripped (confidence 1)  [C5A4423B]  (AR v1)
Track  6  accurately ripped (confidence 1)  [7FF12F7D]  (AR v1)
Track  7  accurately ripped (confidence 1)  [002249D8]  (AR v1)
Track  8  accurately ripped (confidence 1)  [5707F80D]  (AR v1)
Track  9  accurately ripped (confidence 1)  [4B9755E2]  (AR v1)
Track 10  accurately ripped (confidence 1)  [83F019F9]  (AR v1)
Track 11  accurately ripped (confidence 1)  [123B3949]  (AR v1)
Track 12  accurately ripped (confidence 1)  [17D186D3]  (AR v1)
Track 13  accurately ripped (confidence 1)  [A54E9B81]  (AR v1)
Track 14  accurately ripped (confidence 1)  [C29374B0]  (AR v1)
Track 15  accurately ripped (confidence 1)  [AF7EA4CC]  (AR v1)
Track 16  accurately ripped (confidence 1)  [BD33935B]  (AR v1)
All tracks accurately ripped
End of status report
==== Log checksum 405D3A444048F6C90772B0F8EC5F408839C8DF70AD3430124D4686323B04597F ====[hr][/hr]Exact Audio Copy V1.0 beta 2 from 29. April 2011
EAC extraction logfile from 12. July 2012, 14:05
Βασίλης Παπακωνσταντίνου / Από Μένα Το Βασίλη Cd 3
Used drive  : HL-DT-STDVD-RAM GH22NP21   Adapter: 0  ID: 0
Read mode               : Secure
Utilize accurate stream : Yes
Defeat audio cache      : Yes
Make use of C2 pointers : No
Read offset correction                      : 102
Overread into Lead-In and Lead-Out          : No
Fill up missing offset samples with silence : Yes
Delete leading and trailing silent blocks   : No
Null samples used in CRC calculations       : Yes
Used interface                              : Installed external ASPI interface
Used output format              : User Defined Encoder
Selected bitrate                : 1024 kBit/s
Quality                         : High
Add ID3 tag                     : No
Command line compressor         : D:\Program Files\Exact Audio Copy\FLAC\FLAC.EXE
Additional command line options : -6 -V -T "ARTIST=%artist%" -T "TITLE=%title%" -T "ALBUM=%albumtitle%" -T "DATE=%year%" -T "TRACKNUMBER=%tracknr%" -T "GENRE=%genre%" -T "COMMENT=%comment%" -T "BAND=%albuminterpret%" -T "COMPOSER=%composer%" %haslyrics%--ta
TOC of the extracted CD
     Track |   Start  |  Length  | Start sector | End sector
    ---------------------------------------------------------
        1  |  0:00.00 |  4:34.00 |         0    |    20549
        2  |  4:34.00 |  3:20.61 |     20550    |    35610
        3  |  7:54.61 |  2:40.43 |     35611    |    47653
        4  | 10:35.29 |  3:34.09 |     47654    |    63712
        5  | 14:09.38 |  5:40.58 |     63713    |    89270
        6  | 19:50.21 |  4:11.26 |     89271    |   108121
        7  | 24:01.47 |  4:09.51 |    108122    |   126847
        8  | 28:11.23 |  6:02.16 |    126848    |   154013
        9  | 34:13.39 |  5:01.67 |    154014    |   176655
       10  | 39:15.31 |  4:39.48 |    176656    |   197628
       11  | 43:55.04 |  3:52.55 |    197629    |   215083
       12  | 47:47.59 |  3:11.29 |    215084    |   229437
       13  | 50:59.13 |  4:03.07 |    229438    |   247669
       14  | 55:02.20 |  4:04.45 |    247670    |   266014
       15  | 59:06.65 |  4:08.41 |    266015    |   284655
       16  | 63:15.31 |  4:06.16 |    284656    |   303121
Range status and errors
Selected range
     Filename D:\Παπακωνσταντίνου Βασίλης\Βασίλης Παπακωνσταντίνου - Από Μένα Το Βασίλη Cd 3.wav
     Peak level 97.7 %
     Extraction speed 2.8 X
     Range quality 100.0 %
     Copy CRC 4242500E
     Copy OK
No errors occurred
AccurateRip summary
Track  1  accurately ripped (confidence 1)  [4E70D6E5]  (AR v1)
Track  2  accurately ripped (confidence 1)  [1029BAB1]  (AR v1)
Track  3  accurately ripped (confidence 1)  [4C4AF913]  (AR v1)
Track  4  accurately ripped (confidence 1)  [838F6163]  (AR v1)
Track  5  accurately ripped (confidence 1)  [72F500A3]  (AR v1)
Track  6  accurately ripped (confidence 1)  [9CD513AE]  (AR v1)
Track  7  accurately ripped (confidence 1)  [92507B8A]  (AR v1)
Track  8  accurately ripped (confidence 1)  [806A0F4A]  (AR v1)
Track  9  accurately ripped (confidence 1)  [26DEE494]  (AR v1)
Track 10  accurately ripped (confidence 1)  [5C0D9477]  (AR v1)
Track 11  accurately ripped (confidence 1)  [C030A4C7]  (AR v1)
Track 12  accurately ripped (confidence 1)  [BB904578]  (AR v1)
Track 13  accurately ripped (confidence 1)  [E8AE3F2A]  (AR v1)
Track 14  accurately ripped (confidence 1)  [EF89A571]  (AR v1)
Track 15  accurately ripped (confidence 1)  [F895599E]  (AR v1)
Track 16  accurately ripped (confidence 1)  [18FA5778]  (AR v1)
All tracks accurately ripped
End of status report
==== Log checksum 80C79B8840F66578D93934A12A61E7B6D564BBE4869BB4F49ECBBC34D9CD62D4 ====[hr][/hr]Exact Audio Copy V1.0 beta 2 from 29. April 2011
EAC extraction logfile from 12. July 2012, 14:46
Βασίλης Παπακωνσταντίνου / Από Μένα Το Βασίλη Cd 4
Used drive  : HL-DT-STDVD-RAM GH22NP21   Adapter: 0  ID: 0
Read mode               : Secure
Utilize accurate stream : Yes
Defeat audio cache      : Yes
Make use of C2 pointers : No
Read offset correction                      : 102
Overread into Lead-In and Lead-Out          : No
Fill up missing offset samples with silence : Yes
Delete leading and trailing silent blocks   : No
Null samples used in CRC calculations       : Yes
Used interface                              : Installed external ASPI interface
Used output format              : User Defined Encoder
Selected bitrate                : 1024 kBit/s
Quality                         : High
Add ID3 tag                     : No
Command line compressor         : D:\Program Files\Exact Audio Copy\FLAC\FLAC.EXE
Additional command line options : -6 -V -T "ARTIST=%artist%" -T "TITLE=%title%" -T "ALBUM=%albumtitle%" -T "DATE=%year%" -T "TRACKNUMBER=%tracknr%" -T "GENRE=%genre%" -T "COMMENT=%comment%" -T "BAND=%albuminterpret%" -T "COMPOSER=%composer%" %haslyrics%--ta
TOC of the extracted CD
     Track |   Start  |  Length  | Start sector | End sector
    ---------------------------------------------------------
        1  |  0:00.00 |  3:56.74 |         0    |    17773
        2  |  3:56.74 |  4:55.05 |     17774    |    39903
        3  |  8:52.04 |  2:58.69 |     39904    |    53322
        4  | 11:50.73 |  3:20.33 |     53323    |    68355
        5  | 15:11.31 |  4:19.51 |     68356    |    87831
        6  | 19:31.07 |  3:43.10 |     87832    |   104566
        7  | 23:14.17 |  3:39.69 |    104567    |   121060
        8  | 26:54.11 |  5:43.16 |    121061    |   146801
        9  | 32:37.27 |  4:59.58 |    146802    |   169284
       10  | 37:37.10 |  3:32.39 |    169285    |   185223
       11  | 41:09.49 |  3:27.29 |    185224    |   200777
       12  | 44:37.03 |  4:22.37 |    200778    |   220464
       13  | 48:59.40 |  3:39.66 |    220465    |   236955
       14  | 52:39.31 |  4:19.05 |    236956    |   256385
       15  | 56:58.36 |  4:19.29 |    256386    |   275839
       16  | 61:17.65 |  3:11.27 |    275840    |   290191
Range status and errors
Selected range
     Filename D:\Παπακωνσταντίνου Βασίλης\Βασίλης Παπακωνσταντίνου - Από Μένα Το Βασίλη Cd 4.wav
     Peak level 98.8 %
     Extraction speed 2.7 X
     Range quality 100.0 %
     Copy CRC 23B551B2
     Copy OK
No errors occurred
AccurateRip summary
Track  1  accurately ripped (confidence 1)  [39399E5E]  (AR v1)
Track  2  accurately ripped (confidence 1)  [98CB3312]  (AR v1)
Track  3  accurately ripped (confidence 1)  [69B3AB38]  (AR v1)
Track  4  accurately ripped (confidence 1)  [4548CE1C]  (AR v1)
Track  5  accurately ripped (confidence 1)  [C8302E01]  (AR v1)
Track  6  accurately ripped (confidence 1)  [4AEABB3C]  (AR v1)
Track  7  accurately ripped (confidence 1)  [AB87B5E3]  (AR v1)
Track  8  accurately ripped (confidence 1)  [B707A301]  (AR v1)
Track  9  accurately ripped (confidence 1)  [1C6FE3D4]  (AR v1)
Track 10  accurately ripped (confidence 1)  [62FECCBB]  (AR v1)
Track 11  accurately ripped (confidence 1)  [B5B2B3D7]  (AR v1)
Track 12  accurately ripped (confidence 1)  [267B9C68]  (AR v1)
Track 13  accurately ripped (confidence 1)  [CF406136]  (AR v1)
Track 14  not present in database
Track 15  accurately ripped (confidence 1)  [6675A91B]  (AR v1)
Track 16  accurately ripped (confidence 1)  [D572D581]  (AR v1)
15 track(s) accurately ripped
 1 track(s) not present in the AccurateRip database
Some tracks could not be verified as accurate
End of status report
==== Log checksum 9426B2DA6A4F5627E4B2D8E141567711E381C06EBA3461FFB568039A7642905A ====
Код:
REM GENRE Ethnic
REM DATE 2010
REM DISCID D20FDA10
REM COMMENT "ExactAudioCopy v1.0b2"
PERFORMER "Vasilis Papakonstantinou"
TITLE "Apo Mena To Vasili CD 1"
FILE "Vasilis Papakonstantinou - Apo Mena To Vasili Cd 1.flac" WAVE
  TRACK 01 AUDIO
    TITLE "Κι αν είμαι rock"
    PERFORMER "Vasilis Papakonstantinou"
    FLAGS DCP
    INDEX 01 00:00:00
  TRACK 02 AUDIO
    TITLE "Φεύγουν καράβια"
    PERFORMER "Vasilis Papakonstantinou"
    FLAGS DCP
    INDEX 00 05:30:07
    INDEX 01 05:31:07
  TRACK 03 AUDIO
    TITLE "Οι ψυχές και οι αγάπες"
    PERFORMER "Vasilis Papakonstantinou"
    FLAGS DCP
    INDEX 00 08:09:32
    INDEX 01 08:11:32
  TRACK 04 AUDIO
    TITLE "Άλλα τα βράδυα"
    PERFORMER "Vasilis Papakonstantinou"
    FLAGS DCP
    INDEX 00 12:22:31
    INDEX 01 12:24:31
  TRACK 05 AUDIO
    TITLE "Τρίτος παγκόσμιος"
    PERFORMER "Vasilis Papakonstantinou"
    FLAGS DCP
    INDEX 00 16:56:48
    INDEX 01 16:58:48
  TRACK 06 AUDIO
    TITLE "Χαμένες αγάπες"
    PERFORMER "Vasilis Papakonstantinou"
    FLAGS DCP
    INDEX 00 19:45:70
    INDEX 01 19:47:70
  TRACK 07 AUDIO
    TITLE "Καμπαρντίνα"
    PERFORMER "Vasilis Papakonstantinou"
    FLAGS DCP
    INDEX 00 25:17:38
    INDEX 01 25:19:38
  TRACK 08 AUDIO
    TITLE "Φοβάμαι"
    PERFORMER "Vasilis Papakonstantinou"
    FLAGS DCP
    INDEX 00 30:01:11
    INDEX 01 30:03:11
  TRACK 09 AUDIO
    TITLE "Πρώτη Μάιου"
    PERFORMER "Vasilis Papakonstantinou"
    FLAGS DCP
    INDEX 00 36:47:72
    INDEX 01 36:49:07
  TRACK 10 AUDIO
    TITLE "Σ' αγαπώ ακόμα (Certe Cose Si Fanno)"
    PERFORMER "Vasilis Papakonstantinou"
    FLAGS DCP
    INDEX 00 39:59:44
    INDEX 01 40:01:44
  TRACK 11 AUDIO
    TITLE "Βικτωρία"
    PERFORMER "Vasilis Papakonstantinou"
    FLAGS DCP
    INDEX 00 43:50:39
    INDEX 01 43:52:39
  TRACK 12 AUDIO
    TITLE "Κράτα λίγο ακόμα"
    PERFORMER "Vasilis Papakonstantinou"
    FLAGS DCP
    INDEX 00 48:24:01
    INDEX 01 48:25:73
  TRACK 13 AUDIO
    TITLE "Σφεντόνα"
    PERFORMER "Vasilis Papakonstantinou"
    FLAGS DCP
    INDEX 00 52:42:71
    INDEX 01 52:44:71
  TRACK 14 AUDIO
    TITLE "Ελλάς"
    PERFORMER "Vasilis Papakonstantinou"
    FLAGS DCP
    INDEX 00 57:18:08
    INDEX 01 57:20:08
  TRACK 15 AUDIO
    TITLE "Πάρε με"
    PERFORMER "Vasilis Papakonstantinou"
    FLAGS DCP
    INDEX 00 61:43:67
    INDEX 01 61:45:67
  TRACK 16 AUDIO
    TITLE "Σ' αγαπώ να προσέχεις"
    PERFORMER "Vasilis Papakonstantinou"
    FLAGS DCP
    INDEX 01 64:46:51[hr][/hr]REM GENRE Ethnic
REM DATE 2010
REM DISCID E30F8A10
REM COMMENT "ExactAudioCopy v1.0b2"
PERFORMER "Vasilis Papakonstantinou"
TITLE "Apo Mena To Vasili CD 2"
FILE "Vasilis Papakonstantinou - Apo Mena To Vasili Cd 2.flac" WAVE
  TRACK 01 AUDIO
    TITLE "Eνα καράβι"
    PERFORMER "Vasilis Papakonstantinou"
    FLAGS DCP
    INDEX 01 00:00:00
  TRACK 02 AUDIO
    TITLE "Χρόνια πολλά"
    PERFORMER "Vasilis Papakonstantinou"
    FLAGS DCP
    INDEX 00 03:25:11
    INDEX 01 03:27:11
  TRACK 03 AUDIO
    TITLE "Ο κουρσάρος"
    PERFORMER "Vasilis Papakonstantinou"
    FLAGS DCP
    INDEX 00 07:37:48
    INDEX 01 07:39:48
  TRACK 04 AUDIO
    TITLE "Έφηβα γεράκια"
    PERFORMER "Vasilis Papakonstantinou"
    FLAGS DCP
    INDEX 00 13:23:61
    INDEX 01 13:25:60
  TRACK 05 AUDIO
    TITLE "Βράδυ Σαββάτου"
    PERFORMER "Vasilis Papakonstantinou"
    FLAGS DCP
    INDEX 00 16:28:46
    INDEX 01 16:30:46
  TRACK 06 AUDIO
    TITLE "Με τον Μπομπ Ντύλαν"
    PERFORMER "Vasilis Papakonstantinou"
    FLAGS DCP
    INDEX 00 20:11:55
    INDEX 01 20:13:53
  TRACK 07 AUDIO
    TITLE "Σεμπαστιάν"
    PERFORMER "Vasilis Papakonstantinou"
    FLAGS DCP
    INDEX 00 23:39:25
    INDEX 01 23:41:22
  TRACK 08 AUDIO
    TITLE "Από μένα τον Βασίλη"
    PERFORMER "Vasilis Papakonstantinou"
    FLAGS DCP
    INDEX 00 28:52:16
    INDEX 01 28:54:13
  TRACK 09 AUDIO
    TITLE "Χορεύω"
    PERFORMER "Vasilis Papakonstantinou"
    FLAGS DCP
    INDEX 00 32:04:44
    INDEX 01 32:06:44
  TRACK 10 AUDIO
    TITLE "Ο μπαγάσας"
    PERFORMER "Vasilis Papakonstantinou"
    FLAGS DCP
    INDEX 00 36:30:33
    INDEX 01 36:32:33
  TRACK 11 AUDIO
    TITLE "Να γράφεις να τηλεφωνείς"
    PERFORMER "Vasilis Papakonstantinou"
    FLAGS DCP
    INDEX 00 40:35:16
    INDEX 01 40:37:16
  TRACK 12 AUDIO
    TITLE "Μάλιστα κύριε"
    PERFORMER "Vasilis Papakonstantinou"
    FLAGS DCP
    INDEX 00 45:04:60
    INDEX 01 45:06:60
  TRACK 13 AUDIO
    TITLE "Μικρές νοθείες"
    PERFORMER "Vasilis Papakonstantinou"
    FLAGS DCP
    INDEX 00 48:19:59
    INDEX 01 48:21:59
  TRACK 14 AUDIO
    TITLE "Έχω ανάγκη"
    PERFORMER "Vasilis Papakonstantinou"
    FLAGS DCP
    INDEX 00 53:10:49
    INDEX 01 53:12:49
  TRACK 15 AUDIO
    TITLE "Τσε (live)"
    PERFORMER "Vasilis Papakonstantinou"
    FLAGS DCP
    INDEX 00 58:06:40
    INDEX 01 58:08:40
  TRACK 16 AUDIO
    TITLE "Γεια σου"
    PERFORMER "Vasilis Papakonstantinou"
    FLAGS DCP
    INDEX 01 61:51:39[hr][/hr]Exact Audio Copy V1.0 beta 2 from 29. April 2011
EAC extraction logfile from 12. July 2012, 14:05
Βασίλης Παπακωνσταντίνου / Από Μένα Το Βασίλη Cd 3
Used drive  : HL-DT-STDVD-RAM GH22NP21   Adapter: 0  ID: 0
Read mode               : Secure
Utilize accurate stream : Yes
Defeat audio cache      : Yes
Make use of C2 pointers : No
Read offset correction                      : 102
Overread into Lead-In and Lead-Out          : No
Fill up missing offset samples with silence : Yes
Delete leading and trailing silent blocks   : No
Null samples used in CRC calculations       : Yes
Used interface                              : Installed external ASPI interface
Used output format              : User Defined Encoder
Selected bitrate                : 1024 kBit/s
Quality                         : High
Add ID3 tag                     : No
Command line compressor         : D:\Program Files\Exact Audio Copy\FLAC\FLAC.EXE
Additional command line options : -6 -V -T "ARTIST=%artist%" -T "TITLE=%title%" -T "ALBUM=%albumtitle%" -T "DATE=%year%" -T "TRACKNUMBER=%tracknr%" -T "GENRE=%genre%" -T "COMMENT=%comment%" -T "BAND=%albuminterpret%" -T "COMPOSER=%composer%" %haslyrics%--ta
TOC of the extracted CD
     Track |   Start  |  Length  | Start sector | End sector
    ---------------------------------------------------------
        1  |  0:00.00 |  4:34.00 |         0    |    20549
        2  |  4:34.00 |  3:20.61 |     20550    |    35610
        3  |  7:54.61 |  2:40.43 |     35611    |    47653
        4  | 10:35.29 |  3:34.09 |     47654    |    63712
        5  | 14:09.38 |  5:40.58 |     63713    |    89270
        6  | 19:50.21 |  4:11.26 |     89271    |   108121
        7  | 24:01.47 |  4:09.51 |    108122    |   126847
        8  | 28:11.23 |  6:02.16 |    126848    |   154013
        9  | 34:13.39 |  5:01.67 |    154014    |   176655
       10  | 39:15.31 |  4:39.48 |    176656    |   197628
       11  | 43:55.04 |  3:52.55 |    197629    |   215083
       12  | 47:47.59 |  3:11.29 |    215084    |   229437
       13  | 50:59.13 |  4:03.07 |    229438    |   247669
       14  | 55:02.20 |  4:04.45 |    247670    |   266014
       15  | 59:06.65 |  4:08.41 |    266015    |   284655
       16  | 63:15.31 |  4:06.16 |    284656    |   303121
Range status and errors
Selected range
     Filename D:\Παπακωνσταντίνου Βασίλης\Βασίλης Παπακωνσταντίνου - Από Μένα Το Βασίλη Cd 3.wav
     Peak level 97.7 %
     Extraction speed 2.8 X
     Range quality 100.0 %
     Copy CRC 4242500E
     Copy OK
No errors occurred
AccurateRip summary
Track  1  accurately ripped (confidence 1)  [4E70D6E5]  (AR v1)
Track  2  accurately ripped (confidence 1)  [1029BAB1]  (AR v1)
Track  3  accurately ripped (confidence 1)  [4C4AF913]  (AR v1)
Track  4  accurately ripped (confidence 1)  [838F6163]  (AR v1)
Track  5  accurately ripped (confidence 1)  [72F500A3]  (AR v1)
Track  6  accurately ripped (confidence 1)  [9CD513AE]  (AR v1)
Track  7  accurately ripped (confidence 1)  [92507B8A]  (AR v1)
Track  8  accurately ripped (confidence 1)  [806A0F4A]  (AR v1)
Track  9  accurately ripped (confidence 1)  [26DEE494]  (AR v1)
Track 10  accurately ripped (confidence 1)  [5C0D9477]  (AR v1)
Track 11  accurately ripped (confidence 1)  [C030A4C7]  (AR v1)
Track 12  accurately ripped (confidence 1)  [BB904578]  (AR v1)
Track 13  accurately ripped (confidence 1)  [E8AE3F2A]  (AR v1)
Track 14  accurately ripped (confidence 1)  [EF89A571]  (AR v1)
Track 15  accurately ripped (confidence 1)  [F895599E]  (AR v1)
Track 16  accurately ripped (confidence 1)  [18FA5778]  (AR v1)
All tracks accurately ripped
End of status report
==== Log checksum 80C79B8840F66578D93934A12A61E7B6D564BBE4869BB4F49ECBBC34D9CD62D4 ====[hr][/hr]REM GENRE Ethnic
REM DATE 2010
REM DISCID EC0F1D10
REM COMMENT "ExactAudioCopy v1.0b2"
PERFORMER "Vasilis Papakonstantinou"
TITLE "Apo Mena To Vasili CD 4"
FILE "Vasilis Papakonstantinou - Apo Mena To Vasili Cd 4.flac" WAVE
  TRACK 01 AUDIO
    TITLE "Ασε με να κάνω λάθος"
    PERFORMER "Vasilis Papakonstantinou"
    FLAGS DCP
    INDEX 01 00:00:00
  TRACK 02 AUDIO
    TITLE "Οδός Ελλήνων"
    PERFORMER "Vasilis Papakonstantinou"
    FLAGS DCP
    INDEX 00 03:54:74
    INDEX 01 03:56:74
  TRACK 03 AUDIO
    TITLE "Ένα μπλουζ"
    PERFORMER "Vasilis Papakonstantinou"
    FLAGS DCP
    INDEX 00 08:50:06
    INDEX 01 08:52:04
  TRACK 04 AUDIO
    TITLE "Δε σηκώνει"
    PERFORMER "Vasilis Papakonstantinou"
    FLAGS DCP
    INDEX 00 11:48:73
    INDEX 01 11:50:73
  TRACK 05 AUDIO
    TITLE "Άνοιξέ μου να κρυφτώ"
    PERFORMER "Vasilis Papakonstantinou"
    FLAGS DCP
    INDEX 00 15:09:29
    INDEX 01 15:11:31
  TRACK 06 AUDIO
    TITLE "Φυσάει σκουριά"
    PERFORMER "Vasilis Papakonstantinou"
    FLAGS DCP
    INDEX 00 19:29:07
    INDEX 01 19:31:07
  TRACK 07 AUDIO
    TITLE "Να κοιμηθούμε αγκαλιά"
    PERFORMER "Vasilis Papakonstantinou"
    FLAGS DCP
    INDEX 00 23:12:17
    INDEX 01 23:14:17
  TRACK 08 AUDIO
    TITLE "Παράπονα στην Λίνα"
    PERFORMER "Vasilis Papakonstantinou"
    FLAGS DCP
    INDEX 00 26:52:06
    INDEX 01 26:54:11
  TRACK 09 AUDIO
    TITLE "Φυσάει"
    PERFORMER "Vasilis Papakonstantinou"
    FLAGS DCP
    INDEX 00 32:35:26
    INDEX 01 32:37:27
  TRACK 10 AUDIO
    TITLE "Τα πουλιά της δυστυχίας"
    PERFORMER "Vasilis Papakonstantinou"
    FLAGS DCP
    INDEX 00 37:35:10
    INDEX 01 37:37:10
  TRACK 11 AUDIO
    TITLE "Το μαχαίρι"
    PERFORMER "Vasilis Papakonstantinou"
    FLAGS DCP
    INDEX 00 41:07:52
    INDEX 01 41:09:49
  TRACK 12 AUDIO
    TITLE "Κιθαρίστας του Θεού"
    PERFORMER "Vasilis Papakonstantinou"
    FLAGS DCP
    INDEX 00 44:35:02
    INDEX 01 44:37:03
  TRACK 13 AUDIO
    TITLE "Στο ντορέ"
    PERFORMER "Vasilis Papakonstantinou"
    FLAGS DCP
    INDEX 00 48:57:40
    INDEX 01 48:59:40
  TRACK 14 AUDIO
    TITLE "Κράτα λίγο ακόμα"
    PERFORMER "Vasilis Papakonstantinou"
    FLAGS DCP
    INDEX 00 52:37:31
    INDEX 01 52:39:31
  TRACK 15 AUDIO
    TITLE "Να με κρατάς"
    PERFORMER "Vasilis Papakonstantinou"
    FLAGS DCP
    INDEX 00 56:56:38
    INDEX 01 56:58:36
  TRACK 16 AUDIO
    TITLE "Καληνύχτα σας"
    PERFORMER "Vasilis Papakonstantinou"
    FLAGS DCP
    INDEX 01 61:17:65

Альбомы в mp3
1988 - Ola Apo Heri Kamena - VBR 171-194 kbps
1991 - Grammes Ton Orizonton (2CD) - 192 kbps
1999 - Thalassa Sti Skala - VBR 164-183 kbps
2000 - Sfedona Live (2CD) - 128 kbps
В раздаче композитора Thanos Mikroutsikos - Дискография (43 Albums, 5 Compilations) - 1975-2008
Правила, инструкции, FAQ!!!
Торрент  Добавлен [26 мар 2019, 20:37] Скачать торрент Магнет ссылка
Скачать торрент
[ Размер 18.37 КБ / Просмотров 2 ]

Статус
Проверен 
 
Размер  1.66 ГБ
Приватный: Нет (DHT включён)
.torrent скачан  0
 


     Отправить личное сообщение
   
Страница 1 из 1
Показать сообщения за:  Поле сортировки  
Начать новую тему Ответить на тему


Сейчас этот форум просматривают: нет зарегистрированных пользователей и гости: 0


Вы не можете начинать темы
Вы не можете отвечать на сообщения
Вы не можете редактировать свои сообщения
Вы не можете удалять свои сообщения
Вы не можете добавлять вложения

Перейти:  
cron