Начать новую тему Ответить на тему
Статистика раздачи
Размер: 800.54 МБ | Добавлен: 26 мар 2019, 18:40 | Скачали: 0
Сидеров: 1  [0 байт/сек]    Личеров: 0  [0 байт/сек]
Пред. тема | След. тема 

Автор
Сообщение

СообщениеДобавлено: 26 мар 2019, 18:40 

Ответить с цитатой 

- Lavrentis Maheritsas -

- I Enohi Ton Amnon + 15 Anisiha Tragoudia (2CD) -

Жанр: Greek Rock
Страна-производитель диска: Greece
Год издания диска: 2010
Издатель (лейбл): Minos-EMI
Страна: Greece
Аудиокодек: FLAC (*.flac)
Тип рипа: tracks+.cue
Битрейт аудио: lossless
Продолжительность: 02:07:24
Источник (релизер): ALEKOW
Наличие сканов в содержимом раздачи: да
Подарочное издание, вышедшее с греческой газетой "Kyrikatiki Eleftherotipia"
Lavrentis Maheritsas is one of the most gifted singwriters and singers of the contemporary greek rock scene. He started his brilliant career at 1982 as the leading member of the group "Termites" (White ants) with which he released 3 albums. From 1989 he followed a solo career and became very popular with hundreds of sold out concerts all around Greece and many platinum albums. He has many successful collaborations with top artists like Giorgos Dalaras, Haris Alexiou, Vasilis Papakonstantinou, Dionysis Savopoulos, Angelo Branduardi and others, and he enjoys a great popularity.
Lavrentis Maheritsas is a well-known Greek music writer and performer. He has released many gold and platinum-certified albums, creating his own music style, and has also written soundtracks for several theatrical plays and movies. He was born in Volos, Greece and studied music in the Greek Conservatory. In 1980 his friends and he formed a band called “Termites” and left for Paris where they performed for a year and a half in many French clubs. In 1982 “Termites” returned to Greece and recorded their first album titled “Armageddon” with English lyrics. In 1983 their first Greek record was released, also titled “Termites”. From that moment on “Termites” defined the new Greek musical scene and they recorded: “Amartoli Maria” (1985), “Tsimedenia Trena” (1986), “Termites sto Lykavito” (1987) and “Perimenontas ti vrohi” (1988) which signaled the breakup of the band.
In 1989 Lavrentis signed with MINOS E.M.I. and released his first personal record, “O Magapas kai I Sagapo”, beginning his solo career as a music writerand performer. Two years later he released “Didimotiho Blues”, which was quickly certified gold. The record “Rikse Kokino stin Nikta” followed two years later, receiving similar positive critiques. From 1991 until 2002 Lavrentis paired with Dionisis Tsaknis holding countless concerts around Greece which were recorded and turned into an album. In 1995 he released the record “Parathira pou Kourase i Thea”, a project that most critics judge to be one of his best albums. In 1997 his success continued with the release of “Pafsilipon ” which featured other artists and proved a great success, and two years later released his record “Etsi drapetevo apo tis parees”.
In 2000 he featured in the Angelo Branduardi’s record “L’ infinitamente piccolo” in the song “O Soultanos tis Vavilonas”. In 2001 Angelo Branduardi was featured in Lavrentis Maheritsas’ new record titled “To Dialima Kratai Dyo Zoes”, and in 2003 he released the record “Sto afierono”. The summer of 2004 Lavrentis collaborated with Christos Thivaios and toured Greece and Cyprus. In the end of the year, he released an album titled “Halcyon Days: From Nuremberg to Old Nicosia”, a compilation of live recordings of a decade of concerts in Greece, Germany, United Kingdom and Cyprus with the participation of various friends and collaborators, including Tsaknis, Pliatsikas, Thivaios, Kitrina Podilata, Moutsatsou, Logaridis, Karatzoli and Angelo Braduardi.
In 2005 he toured Greece with Philippos Pliatsikas and Dionissis Tsaknis, promoting their new cd single “Hriazete ena thavma edo”. He also participated in Thanos Mikroutsikos’ concerts “Stavros tou Notou kai grammes ton orizodon”, which were recorded and turned into a cd that was quickly certified platinum. In the winter of 2006 he held many live performances titled “25 years our Rock music” with Tsaknis and Pliatsikas.In the summer of 2006 Laverntis leld a tour with Ziogalas, Kazoullis, Kitrina Podilata and Mitzelos all around Greece and abroad. In the fall of 2006 the record “Heroes me karbon” was released, featuring Mitzelos, WC, Tsanaklidou, Lekkas, Eleonora Zouganeli and Michalis Marmatakis.
In the winter of 2006-2007 Lavrentis performed many live performances at the musical stages “Zygos” in Athens and “Fix” in Thessaloniki with Tania Tsanaklidou, Sakis Mpoulas and Yiannis Zouganelis. In the summer of 2007 he toured Greece, Cyprus and other European countries with Boulas, Starovas, Mitzelos and Eleonora Zouganeli; and in the winter of 2007-2008 he held many successful live performances at the musical stages “Zygos” and “Akti Pireos” in Athens with Papakonstantinou, Boulas, Yiannis Zouganelis and Starovas.
In the beginning of 2008 Lavrentis released his first “best of” album titled “Tosa Hronia, mia anasa,” a compilation of his best songs from 1989 to 2007. The collection was quickly certified platinum and led to a two-day concert in Lycabettus Theater in the beginning of June, attracting many guests and enormous success (15,000 individuals). In the winter of 2008-2009 he held live performances in Athens and Thessaloniki with Makedonas, Miliokas, Koutras, Starovas, Konstantopoulos and Zinovia Arvanitidi. At the same time he held live performances with Notis Mavroudis, Anastasia Moutsatsou and Panagiotis Margaris, performing Manos Hadjidakis’ songs. In the summer of 2009 Lavrentis toured Greece, Cyprus and other European countries with Dimitris Starovas, Alkiviades Konstantopoulos and Zinovia Arvanitidi.
In the winter of 2009-2010 he held live performances titled “No smoking (Toxedo)” in Thessaloniki and in Athens with Kotsiras, Afroditi Manou and Kitrina Podilata. The huge success of these performances led to a summer tour all over Greece.

Треклист:
#777Продолжительность: 00:58:46
01. Lavrentis Maheritsas - Ο Ιρλανδός Και Ο Ιουδαίος [04:34]
02. Lavrentis Maheritsas, Zinovia Arvanitidi, Giannis Zouganelis, Sakis Boulas & Alkiviadis Konstantopoulos - Ρημαδιό [04:09]
03. Lavrentis Maheritsas - Γιάννης Κερνάει [03:47]
04. Lavrentis Maheritsas - Θα Είμ' Εκεί [03:24]
05. Lavrentis Maheritsas - Κουρείον 'η Ωραία Ελλάς' [04:24]
06. Lavrentis Maheritsas - Τζούλια, Το Κορίτσι Στη Ζούγκλα [04:02]
07. Lavrentis Maheritsas - Αλλοιώτικος Νόμος [03:18]
08. Lavrentis Maheritsas - Η Κάπνα [03:52]
09. Lavrentis Maheritsas - Αγκαλιά Στον Καναπέ [04:30]
10. Lavrentis Maheritsas - Phil Blues [03:28]
11. Lavrentis Maheritsas & Smaragda Karidi - Μια Μέλισσα Τον Αύγουστο (Συμμετέχει Η Σμαράγδα Καρύδη) [04:27]
12. Lavrentis Maheritsas & Lakis Papadopoulos - Ούτε Ξέρω Τι Θέλω (Συμμετέχει Ο Λάκης Παπαδόπουλος) [03:06]
13. Lavrentis Maheritsas - Η Ενοχή Των Αμνών (The Tale Of Taliesyn)) [08:14]
14. Lavrentis Maheritsas - Πεθαίνω Για Σένα [03:31]
#777Продолжительность: 01:08:36
01. Lavrentis Maheritsas - Ρίξε Κόκκινο Στη Νύχτα (You Are The Voice) [04:34]
02. Lavrentis Maheritsas & Eleftheria Arvanitaki - Μικρασιάτικο [04:28]
03. Lavrentis Maheritsas & Vasilis Papakonstantinou - Να Δεις Τι Σου 'χω Για Μετά [06:06]
04. Lavrentis Maheritsas - Παράθυρα Που Κούρασε Η Θέα [03:55]
05. Lavrentis Maheritsas - Παυσίλυπον [06:30]
06. Lavrentis Maheritsas - Στα Ρουθούνια Τους [04:00]
07. Lavrentis Maheritsas - Λέω Να Την Κάνω Σιγά-Σιγά (Το Ζειμπέκικο Του Χριστόπουλου) [06:21]
08. Lavrentis Maheritsas - Άγνωστος Χ (Vita Spericolata) [04:55]
09. Lavrentis Maheritsas & Katerina Stanisi - Τα Φάρμακα [03:53]
10. Lavrentis Maheritsas - Άφησέ Με Εδώ [03:40]
11. Lavrentis Maheritsas & Children Choir Spirou Lambrou - Τερατάκια Τσέπης (Vanita Di Vanita) [03:26]
12. Lavrentis Maheritsas & Dionisis Tsaknis - Εφάπαξ (Live) [03:09]
13. Lavrentis Maheritsas & Antonis Midzelos - Ψυχή Βαθιά [03:53]
14. Lavrentis Maheritsas & WC - Η Φάλαινα [04:25]
15. Lavrentis Maheritsas & Angelo Branduardi - Ο Σουλτάνος Της Βαβυλώνας & Η Γυναίκα (Il Sultano Di Babilona E La Prostituta) [05:21]


Код:
Exact Audio Copy V1.0 beta 1 from 15. November 2010
EAC extraction logfile from 22. December 2011, 20:55
Λαυρέντης Μαχαιρίτσας / Η Ενοχή Των Αμνών
Used drive  : TSSTcorpCD/DVDW SH-S182D   Adapter: 1  ID: 0
Read mode               : Secure
Utilize accurate stream : Yes
Defeat audio cache      : Yes
Make use of C2 pointers : No
Read offset correction                      : 6
Overread into Lead-In and Lead-Out          : No
Fill up missing offset samples with silence : Yes
Delete leading and trailing silent blocks   : No
Null samples used in CRC calculations       : Yes
Used interface                              : Native Win32 interface for Win NT & 2000
Gap handling                                : Appended to previous track
Used output format              : User Defined Encoder
Selected bitrate                : 1024 kBit/s
Quality                         : High
Add ID3 tag                     : No
Command line compressor         : C:\Program Files\Exact Audio Copy\Flac\flac.exe
Additional command line options : -5 -V -T "ARTIST=%a" -T "TITLE=%t" -T "ALBUM=%g" -T "DATE=%y" -T "TRACKNUMBER=%n" -T "GENRE=%m" -T "COMMENT=%e" %s -o %d
TOC of the extracted CD
     Track |   Start  |  Length  | Start sector | End sector
    ---------------------------------------------------------
        1  |  0:00.00 |  4:33.59 |         0    |    20533
        2  |  4:33.59 |  4:09.04 |     20534    |    39212
        3  |  8:42.63 |  3:47.09 |     39213    |    56246
        4  | 12:29.72 |  3:23.68 |     56247    |    71539
        5  | 15:53.65 |  4:24.24 |     71540    |    91363
        6  | 20:18.14 |  4:02.16 |     91364    |   109529
        7  | 24:20.30 |  3:17.38 |    109530    |   124342
        8  | 27:37.68 |  3:52.18 |    124343    |   141760
        9  | 31:30.11 |  4:29.59 |    141761    |   161994
       10  | 35:59.70 |  3:27.62 |    161995    |   177581
       11  | 39:27.57 |  4:26.47 |    177582    |   197578
       12  | 43:54.29 |  3:06.37 |    197579    |   211565
       13  | 47:00.66 |  8:14.35 |    211566    |   248650
       14  | 55:15.26 |  3:30.46 |    248651    |   264446
Track  1
     Filename C:\New Folder\01. Ο Ιρλανδός Και Ο Ιουδαίος.wav
     Pre-gap length  0:00:02.00
     Peak level 97.3 %
     Extraction speed 2.6 X
     Track quality 100.0 %
     Test CRC 44E262FB
     Copy CRC 44E262FB
     Track not present in AccurateRip database
     Copy OK
Track  2
     Filename C:\New Folder\02. Ρημαδιό (Συμμετέχουν Διάφοροι).wav
     Pre-gap length  0:00:02.00
     Peak level 98.4 %
     Extraction speed 2.6 X
     Track quality 99.9 %
     Test CRC FCA67B7D
     Copy CRC FCA67B7D
     Track not present in AccurateRip database
     Copy OK
Track  3
     Filename C:\New Folder\03. Γιάννης Κερνάει.wav
     Pre-gap length  0:00:02.00
     Peak level 97.8 %
     Extraction speed 2.8 X
     Track quality 99.9 %
     Test CRC 00CCB57B
     Copy CRC 00CCB57B
     Track not present in AccurateRip database
     Copy OK
Track  4
     Filename C:\New Folder\04. Θα Είμ' Εκεί.wav
     Pre-gap length  0:00:02.00
     Peak level 98.0 %
     Extraction speed 3.3 X
     Track quality 100.0 %
     Test CRC DB2E0238
     Copy CRC DB2E0238
     Track not present in AccurateRip database
     Copy OK
Track  5
     Filename C:\New Folder\05. Κουρείον 'Η Ωραία Ελλάς'.wav
     Pre-gap length  0:00:02.00
     Peak level 99.6 %
     Extraction speed 3.3 X
     Track quality 99.9 %
     Test CRC 87D09240
     Copy CRC 87D09240
     Track not present in AccurateRip database
     Copy OK
Track  6
     Filename C:\New Folder\06. Τζούλια, Το Κορίτσι Στη Ζούγκλα.wav
     Pre-gap length  0:00:02.00
     Peak level 98.6 %
     Extraction speed 3.9 X
     Track quality 100.0 %
     Test CRC A4F9FC6E
     Copy CRC A4F9FC6E
     Track not present in AccurateRip database
     Copy OK
Track  7
     Filename C:\New Folder\07. Αλλοιώτικος Νόμος.wav
     Pre-gap length  0:00:02.00
     Peak level 98.4 %
     Extraction speed 3.9 X
     Track quality 100.0 %
     Test CRC EC28D6FD
     Copy CRC EC28D6FD
     Track not present in AccurateRip database
     Copy OK
Track  8
     Filename C:\New Folder\08. Η Κάπνα.wav
     Pre-gap length  0:00:02.00
     Peak level 97.9 %
     Extraction speed 4.2 X
     Track quality 100.0 %
     Test CRC 9A50C9D6
     Copy CRC 9A50C9D6
     Track not present in AccurateRip database
     Copy OK
Track  9
     Filename C:\New Folder\09. Αγκαλιά Στον Καναπέ.wav
     Pre-gap length  0:00:02.00
     Peak level 98.2 %
     Extraction speed 4.5 X
     Track quality 100.0 %
     Test CRC 94CC74A0
     Copy CRC 94CC74A0
     Track not present in AccurateRip database
     Copy OK
Track 10
     Filename C:\New Folder\10. Phil Blues.wav
     Pre-gap length  0:00:02.00
     Peak level 99.3 %
     Extraction speed 4.5 X
     Track quality 100.0 %
     Test CRC 32DB820A
     Copy CRC 32DB820A
     Track not present in AccurateRip database
     Copy OK
Track 11
     Filename C:\New Folder\11. Μια Μέλισσα Τον Αύγουστο (Συμμετέχει Η Σμαράγδα Καρύδη).wav
     Pre-gap length  0:00:02.00
     Peak level 98.7 %
     Extraction speed 4.2 X
     Track quality 99.9 %
     Test CRC B577AF7D
     Copy CRC B577AF7D
     Track not present in AccurateRip database
     Copy OK
Track 12
     Filename C:\New Folder\12. Ούτε Ξέρω Τι Θέλω (Συμμετέχει Ο Λάκης Παπαδόπουλος).wav
     Pre-gap length  0:00:02.00
     Peak level 97.9 %
     Extraction speed 4.7 X
     Track quality 100.0 %
     Test CRC BEC54FD5
     Copy CRC BEC54FD5
     Track not present in AccurateRip database
     Copy OK
Track 13
     Filename C:\New Folder\13. Η Ενοχή Των Αμνών (The Tale Of Taliesyn)).wav
     Pre-gap length  0:00:02.00
     Peak level 98.0 %
     Extraction speed 5.1 X
     Track quality 99.9 %
     Test CRC F599A170
     Copy CRC F599A170
     Track not present in AccurateRip database
     Copy OK
Track 14
     Filename C:\New Folder\14. Πεθαίνω Για Σένα.wav
     Pre-gap length  0:00:02.00
     Peak level 98.5 %
     Extraction speed 5.1 X
     Track quality 100.0 %
     Test CRC D915586F
     Copy CRC D915586F
     Track not present in AccurateRip database
     Copy OK
None of the tracks are present in the AccurateRip database
No errors occurred
End of status report
==== Log checksum 7927F6376A6524BEE202DE231E664FA516F8F871BA4E9C53A6F3C08DAB7111F5 ====[hr][/hr][hr][/hr]Exact Audio Copy V1.0 beta 1 from 15. November 2010
EAC extraction logfile from 22. December 2011, 16:37
Various / Λαυρέντης Μαχαιρίτσας - 15 Ανήσυχα Τραγούδια
Used drive  : TSSTcorpCD/DVDW SH-S182D   Adapter: 1  ID: 0
Read mode               : Secure
Utilize accurate stream : Yes
Defeat audio cache      : Yes
Make use of C2 pointers : No
Read offset correction                      : 6
Overread into Lead-In and Lead-Out          : No
Fill up missing offset samples with silence : Yes
Delete leading and trailing silent blocks   : No
Null samples used in CRC calculations       : Yes
Used interface                              : Native Win32 interface for Win NT & 2000
Gap handling                                : Appended to previous track
Used output format              : User Defined Encoder
Selected bitrate                : 1024 kBit/s
Quality                         : High
Add ID3 tag                     : No
Command line compressor         : C:\Program Files\Exact Audio Copy\Flac\flac.exe
Additional command line options : -5 -V -T "ARTIST=%a" -T "TITLE=%t" -T "ALBUM=%g" -T "DATE=%y" -T "TRACKNUMBER=%n" -T "GENRE=%m" -T "COMMENT=%e" %s -o %d
TOC of the extracted CD
     Track |   Start  |  Length  | Start sector | End sector
    ---------------------------------------------------------
        1  |  0:00.00 |  4:34.14 |         0    |    20563
        2  |  4:34.14 |  4:28.31 |     20564    |    40694
        3  |  9:02.45 |  6:05.74 |     40695    |    68143
        4  | 15:08.44 |  3:54.60 |     68144    |    85753
        5  | 19:03.29 |  6:30.37 |     85754    |   115040
        6  | 25:33.66 |  4:00.16 |    115041    |   133056
        7  | 29:34.07 |  6:21.09 |    133057    |   161640
        8  | 35:55.16 |  4:55.09 |    161641    |   183774
        9  | 40:50.25 |  3:53.23 |    183775    |   201272
       10  | 44:43.48 |  3:39.46 |    201273    |   217743
       11  | 48:23.19 |  3:26.05 |    217744    |   233198
       12  | 51:49.24 |  3:09.11 |    233199    |   247384
       13  | 54:58.35 |  3:53.21 |    247385    |   264880
       14  | 58:51.56 |  4:25.10 |    264881    |   284765
       15  | 63:16.66 |  5:21.22 |    284766    |   308862
Track  1
     Filename C:\New Folder\01. Λαυρέντης Μαχαιρίτσας - Ρίξε Κόκκινο Στη Νύχτα.wav
     Pre-gap length  0:00:02.00
     Peak level 93.3 %
     Extraction speed 2.5 X
     Track quality 100.0 %
     Test CRC 836012B0
     Copy CRC 836012B0
     Accurately ripped (confidence 2)  [533709A5]
     Copy OK
Track  2
     Filename C:\New Folder\02. Λαυρέντης Μαχαιρίτσας, Ελευθερία Αρβανιτάκη - Μικρασιάτικο.wav
     Pre-gap length  0:00:02.00
     Peak level 93.3 %
     Extraction speed 3.0 X
     Track quality 100.0 %
     Test CRC B793ED99
     Copy CRC B793ED99
     Accurately ripped (confidence 2)  [49EA9CF8]
     Copy OK
Track  3
     Filename C:\New Folder\03. Λαυρέντης Μαχαιρίτσας, Βασίλης Παπακωνσταντίνου - Να Δεις Τι Σου 'χω Για Μετά.wav
     Pre-gap length  0:00:02.00
     Peak level 93.3 %
     Extraction speed 3.4 X
     Track quality 100.0 %
     Test CRC B036ABD1
     Copy CRC B036ABD1
     Accurately ripped (confidence 2)  [412B5D01]
     Copy OK
Track  4
     Filename C:\New Folder\04. Λαυρέντης Μαχαιρίτσας - Παράθυρα Που Κούρασε Η Θέα.wav
     Pre-gap length  0:00:02.00
     Peak level 94.3 %
     Extraction speed 3.4 X
     Track quality 100.0 %
     Test CRC 88B12057
     Copy CRC 88B12057
     Accurately ripped (confidence 2)  [2C6D13CA]
     Copy OK
Track  5
     Filename C:\New Folder\05. Λαυρέντης Μαχαιρίτσας - Παυσίλυπον.wav
     Pre-gap length  0:00:02.00
     Peak level 95.6 %
     Extraction speed 3.7 X
     Track quality 99.9 %
     Test CRC 3033D204
     Copy CRC 3033D204
     Accurately ripped (confidence 2)  [6FFF03DA]
     Copy OK
Track  6
     Filename C:\New Folder\06. Λαυρέντης Μαχαιρίτσας - Στα Ρουθούνια Τους.wav
     Pre-gap length  0:00:02.00
     Peak level 93.3 %
     Extraction speed 3.9 X
     Track quality 100.0 %
     Test CRC 87E81BD4
     Copy CRC 87E81BD4
     Accurately ripped (confidence 2)  [87C43218]
     Copy OK
Track  7
     Filename C:\New Folder\07. Λαυρέντης Μαχαιρίτσας - Λέω Να Την Κάνω Σιγά-Σιγά (Το Ζειμπέκικο Του Χριστόπουλου).wav
     Pre-gap length  0:00:02.00
     Peak level 93.3 %
     Extraction speed 4.4 X
     Track quality 100.0 %
     Test CRC BC16C3CD
     Copy CRC BC16C3CD
     Accurately ripped (confidence 2)  [31906856]
     Copy OK
Track  8
     Filename C:\New Folder\08. Λαυρέντης Μαχαιρίτσας - Άγνωστος Χ (Vita Spericolata).wav
     Pre-gap length  0:00:02.00
     Peak level 100.0 %
     Extraction speed 4.5 X
     Track quality 100.0 %
     Test CRC 2510F584
     Copy CRC 2510F584
     Accurately ripped (confidence 2)  [A69A1FA1]
     Copy OK
Track  9
     Filename C:\New Folder\09. Λαυρέντης Μαχαιρίτσας, Κατερίνα Στανίση - Τα Φάρμακα.wav
     Pre-gap length  0:00:02.00
     Peak level 100.0 %
     Extraction speed 4.5 X
     Track quality 100.0 %
     Test CRC C4B0F6B0
     Copy CRC C4B0F6B0
     Accurately ripped (confidence 2)  [B9D5CA64]
     Copy OK
Track 10
     Filename C:\New Folder\10. Λαυρέντης Μαχαιρίτσας - Άφησέ Με Εδώ.wav
     Pre-gap length  0:00:02.00
     Peak level 97.7 %
     Extraction speed 4.3 X
     Track quality 100.0 %
     Test CRC 02A06AE4
     Copy CRC 02A06AE4
     Accurately ripped (confidence 2)  [9FA57445]
     Copy OK
Track 11
     Filename C:\New Folder\11. Λαυρέντης Μαχαιρίτσας, Παιδική Χορωδία Σπύρου Λάμπρου - Τερατάκια Τσέπης (Vanita Di Vanita).wav
     Pre-gap length  0:00:02.00
     Peak level 96.5 %
     Extraction speed 4.8 X
     Track quality 100.0 %
     Test CRC 1D898BBE
     Copy CRC 1D898BBE
     Accurately ripped (confidence 2)  [60E0FD8E]
     Copy OK
Track 12
     Filename C:\New Folder\12. Λαυρέντης Μαχαιρίτσας, Διονύσης Τσακνής - Εφάπαξ (Live).wav
     Pre-gap length  0:00:02.00
     Peak level 79.4 %
     Extraction speed 4.6 X
     Track quality 100.0 %
     Test CRC FAF303F7
     Copy CRC FAF303F7
     Accurately ripped (confidence 2)  [A16BEF04]
     Copy OK
Track 13
     Filename C:\New Folder\13. Λαυρέντης Μαχαιρίτσας, Αντώνης Μιτζέλος - Ψυχή Βαθιά.wav
     Pre-gap length  0:00:02.00
     Peak level 96.5 %
     Extraction speed 5.0 X
     Track quality 100.0 %
     Test CRC 601C944D
     Copy CRC 601C944D
     Accurately ripped (confidence 2)  [BFF942CF]
     Copy OK
Track 14
     Filename C:\New Folder\14. Λαυρέντης Μαχαιρίτσας, WC - Η Φάλαινα.wav
     Pre-gap length  0:00:02.00
     Peak level 100.0 %
     Extraction speed 5.3 X
     Track quality 100.0 %
     Test CRC C19094F8
     Copy CRC C19094F8
     Accurately ripped (confidence 2)  [AE63E2CC]
     Copy OK
Track 15
     Filename C:\New Folder\15. Λαυρέντης Μαχαιρίτσας, Angelo Branduardi - Ο Σουλτάνος Της Βαβυλώνας & Η Γυναίκα (Il Sultano Di Babilona E La Prostituta).wav
     Pre-gap length  0:00:02.15
     Peak level 96.5 %
     Extraction speed 5.5 X
     Track quality 100.0 %
     Test CRC 125D063F
     Copy CRC 125D063F
     Accurately ripped (confidence 2)  [913F23E7]
     Copy OK
All tracks accurately ripped
No errors occurred
End of status report
==== Log checksum 69D618E06E5A0FC476CDE602CBBE260EE3709A921745F8B9A2BF835A679ED1F3 ====
Код:
REM GENRE Ethnic
REM DATE 2010
REM DISCID C10DC50E
REM COMMENT "ExactAudioCopy v1.0b1"
PERFORMER "Lavrentis Maheritsas"
TITLE "Η Ενοχή Των Αμνών"
FILE "01. Ο Ιρλανδός Και Ο Ιουδαίος.wav" WAVE
  TRACK 01 AUDIO
    TITLE "Ο Ιρλανδός Και Ο Ιουδαίος"
    PERFORMER "Lavrentis Maheritsas"
    INDEX 01 00:00:00
  TRACK 02 AUDIO
    TITLE "Ρημαδιό"
    PERFORMER "Lavrentis Maheritsas, Zinovia Arvanitidi, Giannis Zouganelis, Sakis Boulas & Alkiviadis Konstantopoulos"
    INDEX 00 04:31:59
FILE "02. Ρημαδιό (Συμμετέχουν Διάφοροι).wav" WAVE
    INDEX 01 00:00:00
  TRACK 03 AUDIO
    TITLE "Γιάννης Κερνάει"
    PERFORMER "Lavrentis Maheritsas"
    INDEX 00 04:07:04
FILE "03. Γιάννης Κερνάει.wav" WAVE
    INDEX 01 00:00:00
  TRACK 04 AUDIO
    TITLE "Θα Είμ' Εκεί"
    PERFORMER "Lavrentis Maheritsas"
    INDEX 00 03:45:09
FILE "04. Θα Είμ' Εκεί.wav" WAVE
    INDEX 01 00:00:00
  TRACK 05 AUDIO
    TITLE "Κουρείον 'Η Ωραία Ελλάς'"
    PERFORMER "Lavrentis Maheritsas"
    INDEX 00 03:21:68
FILE "05. Κουρείον 'Η Ωραία Ελλάς'.wav" WAVE
    INDEX 01 00:00:00
  TRACK 06 AUDIO
    TITLE "Τζούλια, Το Κορίτσι Στη Ζούγκλα"
    PERFORMER "Lavrentis Maheritsas"
    INDEX 00 04:22:24
FILE "06. Τζούλια, Το Κορίτσι Στη Ζούγκλα.wav" WAVE
    INDEX 01 00:00:00
  TRACK 07 AUDIO
    TITLE "Αλλοιώτικος Νόμος"
    PERFORMER "Lavrentis Maheritsas"
    INDEX 00 04:00:16
FILE "07. Αλλοιώτικος Νόμος.wav" WAVE
    INDEX 01 00:00:00
  TRACK 08 AUDIO
    TITLE "Η Κάπνα"
    PERFORMER "Lavrentis Maheritsas"
    INDEX 00 03:15:38
FILE "08. Η Κάπνα.wav" WAVE
    INDEX 01 00:00:00
  TRACK 09 AUDIO
    TITLE "Αγκαλιά Στον Καναπέ"
    PERFORMER "Lavrentis Maheritsas"
    INDEX 00 03:50:18
FILE "09. Αγκαλιά Στον Καναπέ.wav" WAVE
    INDEX 01 00:00:00
  TRACK 10 AUDIO
    TITLE "Phil Blues"
    PERFORMER "Lavrentis Maheritsas"
    INDEX 00 04:27:59
FILE "10. Phil Blues.wav" WAVE
    INDEX 01 00:00:00
  TRACK 11 AUDIO
    TITLE "Μια Μέλισσα Τον Αύγουστο"
    PERFORMER "Lavrentis Maheritsas & Smaragda Karidi"
    INDEX 00 03:25:62
FILE "11. Μια Μέλισσα Τον Αύγουστο (Συμμετέχει Η Σμαράγδα Καρύδη).wav" WAVE
    INDEX 01 00:00:00
  TRACK 12 AUDIO
    TITLE "Ούτε Ξέρω Τι Θέλω"
    PERFORMER "Lavrentis Maheritsas & Lakis Papadopoulos"
    INDEX 00 04:24:47
FILE "12. Ούτε Ξέρω Τι Θέλω (Συμμετέχει Ο Λάκης Παπαδόπουλος).wav" WAVE
    INDEX 01 00:00:00
  TRACK 13 AUDIO
    TITLE "Η Ενοχή Των Αμνών (The Tale Of Taliesyn)"
    PERFORMER "Lavrentis Maheritsas"
    INDEX 00 03:04:37
FILE "13. Η Ενοχή Των Αμνών (The Tale Of Taliesyn)).wav" WAVE
    INDEX 01 00:00:00
  TRACK 14 AUDIO
    TITLE "Πεθαίνω Για Σένα"
    PERFORMER "Lavrentis Maheritsas"
    INDEX 00 08:12:35
FILE "14. Πεθαίνω Για Σένα.wav" WAVE
    INDEX 01 00:00:00[hr][/hr][hr][/hr]REM GENRE Ethnic
REM DATE 2010
REM DISCID CC10160F
REM COMMENT "ExactAudioCopy v1.0b1"
PERFORMER "Various"
TITLE "Λαυρέντης Μαχαιρίτσας - 15 Ανήσυχα Τραγούδια"
FILE "01. Λαυρέντης Μαχαιρίτσας - Ρίξε Κόκκινο Στη Νύχτα.wav" WAVE
  TRACK 01 AUDIO
    TITLE "Ρίξε Κόκκινο Στη Νύχτα"
    PERFORMER "Λαυρέντης Μαχαιρίτσας"
    FLAGS DCP
    INDEX 01 00:00:00
  TRACK 02 AUDIO
    TITLE "Μικρασιάτικο"
    PERFORMER "Λαυρέντης Μαχαιρίτσας, Ελευθερία Αρβανιτάκη"
    FLAGS DCP
    INDEX 00 04:32:14
FILE "02. Λαυρέντης Μαχαιρίτσας, Ελευθερία Αρβανιτάκη - Μικρασιάτικο.wav" WAVE
    INDEX 01 00:00:00
  TRACK 03 AUDIO
    TITLE "Να Δεις Τι Σου 'χω Για Μετά"
    PERFORMER "Λαυρέντης Μαχαιρίτσας, Βασίλης Παπακωνσταντίνου"
    FLAGS DCP
    INDEX 00 04:26:31
FILE "03. Λαυρέντης Μαχαιρίτσας, Βασίλης Παπακωνσταντίνου - Να Δεις Τι Σου 'χω Για Μετά.wav" WAVE
    INDEX 01 00:00:00
  TRACK 04 AUDIO
    TITLE "Παράθυρα Που Κούρασε Η Θέα"
    PERFORMER "Λαυρέντης Μαχαιρίτσας"
    FLAGS DCP
    INDEX 00 06:03:74
FILE "04. Λαυρέντης Μαχαιρίτσας - Παράθυρα Που Κούρασε Η Θέα.wav" WAVE
    INDEX 01 00:00:00
  TRACK 05 AUDIO
    TITLE "Παυσίλυπον"
    PERFORMER "Λαυρέντης Μαχαιρίτσας"
    FLAGS DCP
    INDEX 00 03:52:60
FILE "05. Λαυρέντης Μαχαιρίτσας - Παυσίλυπον.wav" WAVE
    INDEX 01 00:00:00
  TRACK 06 AUDIO
    TITLE "Στα Ρουθούνια Τους"
    PERFORMER "Λαυρέντης Μαχαιρίτσας"
    FLAGS DCP
    INDEX 00 06:28:37
FILE "06. Λαυρέντης Μαχαιρίτσας - Στα Ρουθούνια Τους.wav" WAVE
    INDEX 01 00:00:00
  TRACK 07 AUDIO
    TITLE "Λέω Να Την Κάνω Σιγά-Σιγά (Το Ζειμπέκικο Του Χριστόπουλου)"
    PERFORMER "Λαυρέντης Μαχαιρίτσας"
    FLAGS DCP
    INDEX 00 03:58:16
FILE "07. Λαυρέντης Μαχαιρίτσας - Λέω Να Την Κάνω Σιγά-Σιγά (Το Ζειμπέκικο Του Χριστόπουλου).wav" WAVE
    INDEX 01 00:00:00
  TRACK 08 AUDIO
    TITLE "Άγνωστος Χ (Vita Spericolata)"
    PERFORMER "Λαυρέντης Μαχαιρίτσας"
    FLAGS DCP
    INDEX 00 06:19:09
FILE "08. Λαυρέντης Μαχαιρίτσας - Άγνωστος Χ (Vita Spericolata).wav" WAVE
    INDEX 01 00:00:00
  TRACK 09 AUDIO
    TITLE "Τα Φάρμακα"
    PERFORMER "Λαυρέντης Μαχαιρίτσας, Κατερίνα Στανίση"
    FLAGS DCP
    INDEX 00 04:53:09
FILE "09. Λαυρέντης Μαχαιρίτσας, Κατερίνα Στανίση - Τα Φάρμακα.wav" WAVE
    INDEX 01 00:00:00
  TRACK 10 AUDIO
    TITLE "Άφησέ Με Εδώ"
    PERFORMER "Λαυρέντης Μαχαιρίτσας"
    FLAGS DCP
    INDEX 00 03:51:23
FILE "10. Λαυρέντης Μαχαιρίτσας - Άφησέ Με Εδώ.wav" WAVE
    INDEX 01 00:00:00
  TRACK 11 AUDIO
    TITLE "Τερατάκια Τσέπης (Vanita Di Vanita)"
    PERFORMER "Λαυρέντης Μαχαιρίτσας, Παιδική Χορωδία Σπύρου Λάμπρου"
    FLAGS DCP
    INDEX 00 03:37:46
FILE "11. Λαυρέντης Μαχαιρίτσας, Παιδική Χορωδία Σπύρου Λάμπρου - Τερατάκια Τσέπης (Vanita Di Vanita).wav" WAVE
    INDEX 01 00:00:00
  TRACK 12 AUDIO
    TITLE "Εφάπαξ (Live)"
    PERFORMER "Λαυρέντης Μαχαιρίτσας, Διονύσης Τσακνής"
    FLAGS DCP
    INDEX 00 03:24:05
FILE "12. Λαυρέντης Μαχαιρίτσας, Διονύσης Τσακνής - Εφάπαξ (Live).wav" WAVE
    INDEX 01 00:00:00
  TRACK 13 AUDIO
    TITLE "Ψυχή Βαθιά"
    PERFORMER "Λαυρέντης Μαχαιρίτσας, Αντώνης Μιτζέλος"
    FLAGS DCP
    INDEX 00 03:07:11
FILE "13. Λαυρέντης Μαχαιρίτσας, Αντώνης Μιτζέλος - Ψυχή Βαθιά.wav" WAVE
    INDEX 01 00:00:00
  TRACK 14 AUDIO
    TITLE "Η Φάλαινα"
    PERFORMER "Λαυρέντης Μαχαιρίτσας, WC"
    FLAGS DCP
    INDEX 00 03:51:21
FILE "14. Λαυρέντης Μαχαιρίτσας, WC - Η Φάλαινα.wav" WAVE
    INDEX 01 00:00:00
  TRACK 15 AUDIO
    TITLE "Ο Σουλτάνος Της Βαβυλώνας & Η Γυναίκα (Il Sultano Di Babilona E La Prostituta)"
    PERFORMER "Λαυρέντης Μαχαιρίτσας, Angelo Branduardi"
    FLAGS DCP
    INDEX 00 04:22:70
FILE "15. Λαυρέντης Μαχαιρίτσας, Angelo Branduardi - Ο Σουλτάνος Της Βαβυλώνας & Η Γυναίκα (Il Sultano Di Babilona E La Prostituta).wav" WAVE
    INDEX 01 00:00:00


Правила, инструкции, FAQ!!!
Торрент  Добавлен [26 мар 2019, 18:40] Скачать торрент Магнет ссылка
Скачать торрент
[ Размер 21.45 КБ / Просмотров 2 ]

Статус
Проверен 
 
Размер  800.54 МБ
Приватный: Нет (DHT включён)
.torrent скачан  0
 


     Отправить личное сообщение
   
Страница 1 из 1
Показать сообщения за:  Поле сортировки  
Начать новую тему Ответить на тему


Сейчас этот форум просматривают: нет зарегистрированных пользователей и гости: 0


Вы не можете начинать темы
Вы не можете отвечать на сообщения
Вы не можете редактировать свои сообщения
Вы не можете удалять свои сообщения
Вы не можете добавлять вложения

Перейти:  
cron