Начать новую тему Ответить на тему
Статистика раздачи
Размер: 683.52 МБ | Добавлен: 26 мар 2019, 19:09 | Скачали: 0
Сидеров: 3  [0 байт/сек]    Личеров: 1  [0 байт/сек]
Пред. тема | След. тема 

Автор
Сообщение

СообщениеДобавлено: 26 мар 2019, 19:09 

Ответить с цитатой 

- Nikos Ziogalas -

- Коллекция (3 Albums) -

|| Жанр: Greek Pop-Rock || Год издания диска: 1985-1996 || Страна: Greece ||
|| Издатель (лейбл): Minos, LYRA || Аудио кодек: lossless || Тип рипа: tracks+.cue ||
|| Битрейт аудио: lossless || Продолжительность: 01:49:16 || Источник (релизер): alekow|| Наличие сканов в содержимом раздачи: да ||
Nikos Ziogalas was born in Imatheia, Greece at 1953. His musical career starts in the early 70's when he collaborates with various Greek artists and bands like Anakara, Iraklis Triantafilidis and Dionysis Savvopoulos. After 2 years of studying Music Therapy in Paris he returns to Greece and continues to play music with rock bands like 'Spiridoula' and 'Ermafro'. In 1985 he releases his first solo album with the tittle 'Jumbo'. His personal discography includes 8 more albums. He has also participated in many albums of other artists as a singer and has collaborated with a lot of famous greek composers and singers.


Треклист:
01. Θ' Αντέξω - (03:33)
02. Το Τζάμπο - (04:12)
03. Μην Υποκρίνεσαι - (03:01)
04. Ηλεκτροπληξία - (03:18)
05. Σαν Star Του Σινεμά - (03:50)
06. Στον Πάτο Της Καρδιάς Μου - (03:35)
07. Μάγισσα - (02:08)
08. Πρόσφυγας Εντός - (03:24)
09. Λίβανος - (02:50)
Код:
Exact Audio Copy V0.99 prebeta 5 from 4. May 2009
EAC extraction logfile from 5. August 2010, 12:59
Νίκος Ζιώγαλας / Το Τζάμπο
Used drive  : HL-DT-STDVD-RAM GH22NP20   Adapter: 1  ID: 1
Read mode               : Secure
Utilize accurate stream : Yes
Defeat audio cache      : Yes
Make use of C2 pointers : No
Read offset correction                      : 102
Overread into Lead-In and Lead-Out          : No
Fill up missing offset samples with silence : Yes
Delete leading and trailing silent blocks   : No
Null samples used in CRC calculations       : Yes
Used interface                              : Installed external ASPI interface
Gap handling                                : Appended to previous track
Used output format              : User Defined Encoder
Selected bitrate                : 1024 kBit/s
Quality                         : High
Add ID3 tag                     : No
Command line compressor         : C:\Program Files\Exact Audio Copy\FLAC\FLAC.EXE
Additional command line options : -5 -V -T "ARTIST=%a" -T "TITLE=%t" -T "ALBUM=%g" -T "DATE=%y" -T "TRACKNUMBER=%n" -T "GENRE=%m" -T "COMMENT=%e" %s -o %d
Use compression offset          : 48
TOC of the extracted CD
     Track |   Start  |  Length  | Start sector | End sector
    ---------------------------------------------------------
        1  |  0:00.00 |  3:33.00 |         0    |    15974
        2  |  3:33.00 |  4:12.00 |     15975    |    34874
        3  |  7:45.00 |  3:01.00 |     34875    |    48449
        4  | 10:46.00 |  3:18.00 |     48450    |    63299
        5  | 14:04.00 |  3:50.00 |     63300    |    80549
        6  | 17:54.00 |  3:35.00 |     80550    |    96674
        7  | 21:29.00 |  2:08.00 |     96675    |   106274
        8  | 23:37.00 |  3:24.00 |    106275    |   121574
        9  | 27:01.00 |  2:50.00 |    121575    |   134324
Track  1
     Filename C:\New Folder\01. Θ' Αντέξω.wav
     Pre-gap length  0:00:02.00
     Peak level 82.2 %
     Track quality 100.0 %
     Copy CRC 55F8626F
     Track not present in AccurateRip database
     Copy OK
Track  2
     Filename C:\New Folder\02. Το Τζάμπο.wav
     Pre-gap length  0:00:03.00
     Peak level 85.2 %
     Track quality 99.9 %
     Copy CRC 9E4FFF26
     Track not present in AccurateRip database
     Copy OK
Track  3
     Filename C:\New Folder\03. Μην Υποκρίνεσαι.wav
     Pre-gap length  0:00:03.00
     Peak level 86.6 %
     Track quality 99.9 %
     Copy CRC 1833B4AF
     Track not present in AccurateRip database
     Copy OK
Track  4
     Filename C:\New Folder\04. Ηλεκτροπληξία.wav
     Pre-gap length  0:00:04.00
     Peak level 83.9 %
     Track quality 100.0 %
     Copy CRC AAC492B9
     Track not present in AccurateRip database
     Copy OK
Track  5
     Filename C:\New Folder\05. Σαν Star Του Σινεμά.wav
     Pre-gap length  0:00:04.00
     Peak level 82.6 %
     Track quality 100.0 %
     Copy CRC 8325EC1C
     Track not present in AccurateRip database
     Copy OK
Track  6
     Filename C:\New Folder\06. Στον Πάτο Της Καρδιάς Μου.wav
     Pre-gap length  0:00:03.00
     Peak level 84.5 %
     Track quality 100.0 %
     Copy CRC A428E008
     Track not present in AccurateRip database
     Copy OK
Track  7
     Filename C:\New Folder\07. Μάγισσα.wav
     Pre-gap length  0:00:03.00
     Peak level 79.4 %
     Track quality 100.0 %
     Copy CRC 5FE6EBE8
     Track not present in AccurateRip database
     Copy OK
Track  8
     Filename C:\New Folder\08. Πρόσφυγας Εντός.wav
     Pre-gap length  0:00:03.00
     Peak level 85.0 %
     Track quality 100.0 %
     Copy CRC 740E29BC
     Track not present in AccurateRip database
     Copy OK
Track  9
     Filename C:\New Folder\09. Λίβανος.wav
     Pre-gap length  0:00:03.00
     Peak level 91.8 %
     Track quality 99.9 %
     Copy CRC 46A0A9AE
     Track not present in AccurateRip database
     Copy OK
None of the tracks are present in the AccurateRip database
No errors occurred
End of status report
Код:
REM GENRE Ethnic
REM DATE 1985
REM DISCID 7506FF09
REM COMMENT "ExactAudioCopy v0.99pb5"
PERFORMER "Νίκος Ζιώγαλας"
TITLE "Το Τζάμπο"
FILE "01. Θ' Αντέξω.wav" WAVE
  TRACK 01 AUDIO
    TITLE "Θ' Αντέξω"
    PERFORMER "Νίκος Ζιώγαλας"
    INDEX 01 00:00:00
  TRACK 02 AUDIO
    TITLE "Το Τζάμπο"
    PERFORMER "Νίκος Ζιώγαλας"
    INDEX 00 03:30:00
FILE "02. Το Τζάμπο.wav" WAVE
    INDEX 01 00:00:00
  TRACK 03 AUDIO
    TITLE "Μην Υποκρίνεσαι"
    PERFORMER "Νίκος Ζιώγαλας"
    INDEX 00 04:09:00
FILE "03. Μην Υποκρίνεσαι.wav" WAVE
    INDEX 01 00:00:00
  TRACK 04 AUDIO
    TITLE "Ηλεκτροπληξία"
    PERFORMER "Νίκος Ζιώγαλας"
    INDEX 00 02:57:00
FILE "04. Ηλεκτροπληξία.wav" WAVE
    INDEX 01 00:00:00
  TRACK 05 AUDIO
    TITLE "Σαν Star Του Σινεμά"
    PERFORMER "Νίκος Ζιώγαλας"
    INDEX 00 03:14:00
FILE "05. Σαν Star Του Σινεμά.wav" WAVE
    INDEX 01 00:00:00
  TRACK 06 AUDIO
    TITLE "Στον Πάτο Της Καρδιάς Μου"
    PERFORMER "Νίκος Ζιώγαλας"
    INDEX 00 03:47:00
FILE "06. Στον Πάτο Της Καρδιάς Μου.wav" WAVE
    INDEX 01 00:00:00
  TRACK 07 AUDIO
    TITLE "Μάγισσα"
    PERFORMER "Νίκος Ζιώγαλας"
    INDEX 00 03:32:00
FILE "07. Μάγισσα.wav" WAVE
    INDEX 01 00:00:00
  TRACK 08 AUDIO
    TITLE "Πρόσφυγας Εντός"
    PERFORMER "Νίκος Ζιώγαλας"
    INDEX 00 02:05:00
FILE "08. Πρόσφυγας Εντός.wav" WAVE
    INDEX 01 00:00:00
  TRACK 09 AUDIO
    TITLE "Λίβανος"
    PERFORMER "Νίκος Ζιώγαλας"
    INDEX 00 03:21:00
FILE "09. Λίβανος.wav" WAVE
    INDEX 01 00:00:00
#77701. Γυρνά Ο Καιρός - (04:37)
02. Δε Με Νοιάζει Πια - (02:50)
03. Κύματα - (05:14)
04. Μόνος Στο Λιμάνι - (04:15)
05. Σαν Κεραυνός - (02:10)
06. Ο Ρομαντικός - (03:28)
07. Βασιλική - (02:59)
08. Μες Στην Καρδιά Μου Σ' Έχω - (03:44)
09. Μη Μου Μιλάτε Σήμερα - (03:06)
10. Της Καρδιάς Τα Πέταλα - (02:45)
11. Χρόνια Σου Πολλά - (03:15)
Код:
Exact Audio Copy V0.99 prebeta 5 from 4. May 2009
EAC extraction logfile from 5. August 2010, 19:10
Νίκος Ζιώγαλας / Γυρνά Ο Καιρός
Used drive  : HL-DT-STDVD-RAM GH22NP20   Adapter: 1  ID: 1
Read mode               : Secure
Utilize accurate stream : Yes
Defeat audio cache      : Yes
Make use of C2 pointers : No
Read offset correction                      : 102
Overread into Lead-In and Lead-Out          : No
Fill up missing offset samples with silence : Yes
Delete leading and trailing silent blocks   : No
Null samples used in CRC calculations       : Yes
Used interface                              : Installed external ASPI interface
Gap handling                                : Appended to previous track
Used output format              : User Defined Encoder
Selected bitrate                : 1024 kBit/s
Quality                         : High
Add ID3 tag                     : No
Command line compressor         : C:\Program Files\Exact Audio Copy\FLAC\FLAC.EXE
Additional command line options : -5 -V -T "ARTIST=%a" -T "TITLE=%t" -T "ALBUM=%g" -T "DATE=%y" -T "TRACKNUMBER=%n" -T "GENRE=%m" -T "COMMENT=%e" %s -o %d
Use compression offset          : 48
TOC of the extracted CD
     Track |   Start  |  Length  | Start sector | End sector
    ---------------------------------------------------------
        1  |  0:00.00 |  4:37.27 |         0    |    20801
        2  |  4:37.27 |  2:50.25 |     20802    |    33576
        3  |  7:27.52 |  5:14.23 |     33577    |    57149
        4  | 12:42.00 |  4:15.27 |     57150    |    76301
        5  | 16:57.27 |  2:10.13 |     76302    |    86064
        6  | 19:07.40 |  3:27.32 |     86065    |   101621
        7  | 22:34.72 |  2:58.58 |    101622    |   115029
        8  | 25:33.55 |  3:43.65 |    115030    |   131819
        9  | 29:17.45 |  3:06.15 |    131820    |   145784
       10  | 32:23.60 |  2:45.02 |    145785    |   158161
       11  | 35:08.62 |  3:14.53 |    158162    |   172764
Track  1
     Filename C:\New Folder\01. Γυρνά Ο Καιρός.wav
     Pre-gap length  0:00:02.00
     Peak level 99.8 %
     Track quality 100.0 %
     Copy CRC 6057F236
     Accurately ripped (confidence 1)  [0286FF3E]
     Copy OK
Track  2
     Filename C:\New Folder\02. Δε Με Νοιάζει Πια.wav
     Pre-gap length  0:00:01.67
     Peak level 97.3 %
     Track quality 99.9 %
     Copy CRC 52C5123E
     Accurately ripped (confidence 1)  [69982DD3]
     Copy OK
Track  3
     Filename C:\New Folder\03. Κύματα.wav
     Pre-gap length  0:00:02.07
     Peak level 93.1 %
     Track quality 100.0 %
     Copy CRC 2DE8BB04
     Cannot be verified as accurate (confidence 1)  [C9E7FCE3], AccurateRip returned [9705E0A5]
     Copy OK
Track  4
     Filename C:\New Folder\04. Μόνος Στο Λιμάνι.wav
     Pre-gap length  0:00:01.60
     Peak level 92.5 %
     Track quality 99.9 %
     Copy CRC 6F7AA76F
     Cannot be verified as accurate (confidence 1)  [25066A72], AccurateRip returned [5F8FFAC3]
     Copy OK
Track  5
     Filename C:\New Folder\05. Σαν Κεραυνός.wav
     Pre-gap length  0:00:01.72
     Peak level 96.4 %
     Track quality 99.9 %
     Copy CRC E83B80FF
     Accurately ripped (confidence 1)  [20258CA7]
     Copy OK
Track  6
     Filename C:\New Folder\06. Ο Ρομαντικός.wav
     Pre-gap length  0:00:02.00
     Peak level 90.7 %
     Track quality 100.0 %
     Copy CRC BC9075B2
     Accurately ripped (confidence 1)  [63EADE75]
     Copy OK
Track  7
     Filename C:\New Folder\07. Βασιλική.wav
     Pre-gap length  0:00:02.60
     Peak level 97.6 %
     Track quality 100.0 %
     Copy CRC 8F559F0B
     Accurately ripped (confidence 1)  [DE3661D6]
     Copy OK
Track  8
     Filename C:\New Folder\08. Μες Στην Καρδιά Μου Σ' Έχω.wav
     Pre-gap length  0:00:01.73
     Peak level 99.5 %
     Track quality 100.0 %
     Copy CRC 415FE927
     Accurately ripped (confidence 1)  [93687708]
     Copy OK
Track  9
     Filename C:\New Folder\09. Μη Μου Μιλάτε Σήμερα.wav
     Pre-gap length  0:00:02.18
     Peak level 95.9 %
     Track quality 100.0 %
     Copy CRC 58AEFBFE
     Accurately ripped (confidence 1)  [24FDEE09]
     Copy OK
Track 10
     Filename C:\New Folder\10. Της Καρδιάς Τα Πέταλα.wav
     Pre-gap length  0:00:01.05
     Peak level 89.9 %
     Track quality 99.9 %
     Copy CRC 111596D1
     Accurately ripped (confidence 1)  [7682E3EE]
     Copy OK
Track 11
     Filename C:\New Folder\11. Χρόνια Σου Πολλά.wav
     Pre-gap length  0:00:03.10
     Peak level 92.8 %
     Track quality 100.0 %
     Copy CRC D2DEBA74
     Accurately ripped (confidence 1)  [C45A85E2]
     Copy OK
 9 track(s) accurately ripped
 2 track(s) could not be verified as accurate
Some tracks could not be verified as accurate
No errors occurred
End of status report
Код:
REM GENRE Ethnic
REM DATE 1994
REM DISCID 9A08FF0B
REM COMMENT "ExactAudioCopy v0.99pb5"
PERFORMER "Νίκος Ζιώγαλας"
TITLE "Γυρνά Ο Καιρός"
FILE "01. Γυρνά Ο Καιρός.wav" WAVE
  TRACK 01 AUDIO
    TITLE "Γυρνά Ο Καιρός"
    PERFORMER "Νίκος Ζιώγαλας"
    INDEX 01 00:00:00
  TRACK 02 AUDIO
    TITLE "Δε Με Νοιάζει Πια"
    PERFORMER "Νίκος Ζιώγαλας"
    INDEX 00 04:35:35
FILE "02. Δε Με Νοιάζει Πια.wav" WAVE
    INDEX 01 00:00:00
  TRACK 03 AUDIO
    TITLE "Κύματα"
    PERFORMER "Νίκος Ζιώγαλας"
    INDEX 00 02:48:18
FILE "03. Κύματα.wav" WAVE
    INDEX 01 00:00:00
    INDEX 02 00:31:33
  TRACK 04 AUDIO
    TITLE "Μόνος Στο Λιμάνι"
    PERFORMER "Νίκος Ζιώγαλας"
    INDEX 00 05:12:38
FILE "04. Μόνος Στο Λιμάνι.wav" WAVE
    INDEX 01 00:00:00
  TRACK 05 AUDIO
    TITLE "Σαν Κεραυνός"
    PERFORMER "Νίκος Ζιώγαλας"
    INDEX 00 04:13:30
FILE "05. Σαν Κεραυνός.wav" WAVE
    INDEX 01 00:00:00
  TRACK 06 AUDIO
    TITLE "Ο Ρομαντικός"
    PERFORMER "Νίκος Ζιώγαλας"
    INDEX 00 02:08:13
FILE "06. Ο Ρομαντικός.wav" WAVE
    INDEX 01 00:00:00
  TRACK 07 AUDIO
    TITLE "Βασιλική"
    PERFORMER "Νίκος Ζιώγαλας"
    INDEX 00 03:24:47
FILE "07. Βασιλική.wav" WAVE
    INDEX 01 00:00:00
  TRACK 08 AUDIO
    TITLE "Μες Στην Καρδιά Μου Σ' Έχω"
    PERFORMER "Νίκος Ζιώγαλας"
    INDEX 00 02:56:60
FILE "08. Μες Στην Καρδιά Μου Σ' Έχω.wav" WAVE
    INDEX 01 00:00:00
  TRACK 09 AUDIO
    TITLE "Μη Μου Μιλάτε Σήμερα"
    PERFORMER "Νίκος Ζιώγαλας"
    INDEX 00 03:41:47
FILE "09. Μη Μου Μιλάτε Σήμερα.wav" WAVE
    INDEX 01 00:00:00
  TRACK 10 AUDIO
    TITLE "Της Καρδιάς Τα Πέταλα"
    PERFORMER "Νίκος Ζιώγαλας"
    INDEX 00 03:05:10
FILE "10. Της Καρδιάς Τα Πέταλα.wav" WAVE
    INDEX 01 00:00:00
  TRACK 11 AUDIO
    TITLE "Χρόνια Σου Πολλά"
    PERFORMER "Νίκος Ζιώγαλας"
    INDEX 00 02:41:67
FILE "11. Χρόνια Σου Πολλά.wav" WAVE
    INDEX 01 00:00:00
#77701. Σαν Σταρ Του Σινεμά - (03:41)
02. Στον Πάτο Της Καρδιάς Μου - (03:15)
03. Θα Σου Φανερωθώ - (03:39)
04. Βέροια - (04:04)
05. Σε Μπαρ Και Καφενεία - (02:46)
06. Φρόσω Ρίνα Μου - (02:49)
07. Άγρια Τριανταφυλλιά - (02:58)
08. Πάρε Με Απόψε Πάρε Με (Με Τη Γλυκερία) - (03:24)
09. Τσιγγάνα - (03:54)
10. Το 'Αχ' Που Με Λυτρώνει - (03:49)
11. Από Ποτήρια Χωριστά - (03:41)
12. Του Γάμου - (03:02)
Код:
Exact Audio Copy V0.99 prebeta 5 from 4. May 2009
EAC extraction logfile from 5. August 2010, 7:54
Νίκος Ζιώγαλας  / Παλιοί Λογαραιασμοί
Used drive  : HL-DT-STDVD-RAM GH22NP20   Adapter: 1  ID: 1
Read mode               : Secure
Utilize accurate stream : Yes
Defeat audio cache      : Yes
Make use of C2 pointers : No
Read offset correction                      : 102
Overread into Lead-In and Lead-Out          : No
Fill up missing offset samples with silence : Yes
Delete leading and trailing silent blocks   : No
Null samples used in CRC calculations       : Yes
Used interface                              : Installed external ASPI interface
Gap handling                                : Appended to previous track
Used output format              : User Defined Encoder
Selected bitrate                : 1024 kBit/s
Quality                         : High
Add ID3 tag                     : No
Command line compressor         : C:\Program Files\Exact Audio Copy\FLAC\FLAC.EXE
Additional command line options : -5 -V -T "ARTIST=%a" -T "TITLE=%t" -T "ALBUM=%g" -T "DATE=%y" -T "TRACKNUMBER=%n" -T "GENRE=%m" -T "COMMENT=%e" %s -o %d
Use compression offset          : 48
TOC of the extracted CD
     Track |   Start  |  Length  | Start sector | End sector
    ---------------------------------------------------------
        1  |  0:00.00 |  3:40.70 |         0    |    16569
        2  |  3:40.70 |  3:14.70 |     16570    |    31189
        3  |  6:55.65 |  3:39.13 |     31190    |    47627
        4  | 10:35.03 |  4:03.47 |     47628    |    65899
        5  | 14:38.50 |  2:45.63 |     65900    |    78337
        6  | 17:24.38 |  2:48.60 |     78338    |    90997
        7  | 20:13.23 |  2:57.30 |     90998    |   104302
        8  | 23:10.53 |  3:24.17 |    104303    |   119619
        9  | 26:34.70 |  3:53.35 |    119620    |   137129
       10  | 30:28.30 |  3:49.08 |    137130    |   154312
       11  | 34:17.38 |  3:41.27 |    154313    |   170914
       12  | 37:58.65 |  3:01.30 |    170915    |   184519
Track  1
     Filename C:\New Folder\01. Σαν Σταρ Του Σινεμά.wav
     Pre-gap length  0:00:02.00
     Peak level 96.7 %
     Track quality 100.0 %
     Copy CRC 17FE5986
     Track not present in AccurateRip database
     Copy OK
Track  2
     Filename C:\New Folder\02. Στον Πάτο Της Καρδιάς Μου.wav
     Pre-gap length  0:00:02.20
     Peak level 98.0 %
     Track quality 99.9 %
     Copy CRC 5507CA32
     Track not present in AccurateRip database
     Copy OK
Track  3
     Filename C:\New Folder\03. Θα Σου Φανερωθώ.wav
     Pre-gap length  0:00:02.32
     Peak level 94.7 %
     Track quality 99.9 %
     Copy CRC E324EFC2
     Track not present in AccurateRip database
     Copy OK
Track  4
     Filename C:\New Folder\04. Βέροια.wav
     Pre-gap length  0:00:02.13
     Peak level 94.5 %
     Track quality 100.0 %
     Copy CRC 86AD1557
     Track not present in AccurateRip database
     Copy OK
Track  5
     Filename C:\New Folder\05. Σε Μπαρ Και Καφενεία.wav
     Pre-gap length  0:00:02.20
     Peak level 95.1 %
     Track quality 100.0 %
     Copy CRC B97CECF8
     Track not present in AccurateRip database
     Copy OK
Track  6
     Filename C:\New Folder\06. Φρόσω Ρίνα Μου.wav
     Pre-gap length  0:00:02.30
     Peak level 97.1 %
     Track quality 100.0 %
     Copy CRC 81A99E4B
     Track not present in AccurateRip database
     Copy OK
Track  7
     Filename C:\New Folder\07. Άγρια Τριανταφυλλιά.wav
     Pre-gap length  0:00:02.28
     Peak level 92.5 %
     Track quality 100.0 %
     Copy CRC 9DC565FA
     Track not present in AccurateRip database
     Copy OK
Track  8
     Filename C:\New Folder\08. Πάρε Με Απόψε Πάρε Με (Με Τη Γλυκερία).wav
     Pre-gap length  0:00:02.23
     Peak level 71.8 %
     Track quality 99.9 %
     Copy CRC 0C87155A
     Track not present in AccurateRip database
     Copy OK
Track  9
     Filename C:\New Folder\09. Τσιγγάνα.wav
     Pre-gap length  0:00:02.42
     Peak level 99.6 %
     Track quality 100.0 %
     Copy CRC 29E2F0F3
     Track not present in AccurateRip database
     Copy OK
Track 10
     Filename C:\New Folder\10. Το 'Αχ' Που Με Λυτρώνει.wav
     Pre-gap length  0:00:02.67
     Peak level 97.8 %
     Track quality 99.9 %
     Copy CRC 39076F48
     Track not present in AccurateRip database
     Copy OK
Track 11
     Filename C:\New Folder\11. Από Ποτήρια Χωριστά.wav
     Pre-gap length  0:00:02.55
     Peak level 87.7 %
     Track quality 100.0 %
     Copy CRC D7199F32
     Track not present in AccurateRip database
     Copy OK
Track 12
     Filename C:\New Folder\12. Του Γάμου.wav
     Pre-gap length  0:00:03.02
     Peak level 95.2 %
     Track quality 100.0 %
     Copy CRC 8DF554EF
     Track not present in AccurateRip database
     Copy OK
None of the tracks are present in the AccurateRip database
No errors occurred
End of status report
Код:
REM GENRE Ethnic
REM DATE 1996
REM DISCID 94099C0C
REM COMMENT "ExactAudioCopy v0.99pb5"
PERFORMER "Νίκος Ζιώγαλας "
TITLE "Παλιοί Λογαραιασμοί"
FILE "01. Σαν Σταρ Του Σινεμά.wav" WAVE
  TRACK 01 AUDIO
    TITLE "Σαν Σταρ Του Σινεμά"
    PERFORMER "Νίκος Ζιώγαλας "
    INDEX 01 00:00:00
  TRACK 02 AUDIO
    TITLE "Στον Πάτο Της Καρδιάς Μου"
    PERFORMER "Νίκος Ζιώγαλας "
    INDEX 00 03:38:50
FILE "02. Στον Πάτο Της Καρδιάς Μου.wav" WAVE
    INDEX 01 00:00:00
  TRACK 03 AUDIO
    TITLE "Θα Σου Φανερωθώ"
    PERFORMER "Νίκος Ζιώγαλας "
    INDEX 00 03:12:38
FILE "03. Θα Σου Φανερωθώ.wav" WAVE
    INDEX 01 00:00:00
  TRACK 04 AUDIO
    TITLE "Βέροια"
    PERFORMER "Νίκος Ζιώγαλας "
    INDEX 00 03:37:00
FILE "04. Βέροια.wav" WAVE
    INDEX 01 00:00:00
  TRACK 05 AUDIO
    TITLE "Σε Μπαρ Και Καφενεία"
    PERFORMER "Νίκος Ζιώγαλας "
    INDEX 00 04:01:27
FILE "05. Σε Μπαρ Και Καφενεία.wav" WAVE
    INDEX 01 00:00:00
  TRACK 06 AUDIO
    TITLE "Φρόσω Ρίνα Μου"
    PERFORMER "Νίκος Ζιώγαλας "
    INDEX 00 02:43:33
FILE "06. Φρόσω Ρίνα Μου.wav" WAVE
    INDEX 01 00:00:00
  TRACK 07 AUDIO
    TITLE "Άγρια Τριανταφυλλιά"
    PERFORMER "Νίκος Ζιώγαλας "
    INDEX 00 02:46:32
FILE "07. Άγρια Τριανταφυλλιά.wav" WAVE
    INDEX 01 00:00:00
  TRACK 08 AUDIO
    TITLE "Πάρε Με Απόψε Πάρε Με (Με Τη Γλυκερία)"
    PERFORMER "Νίκος Ζιώγαλας "
    INDEX 00 02:55:07
FILE "08. Πάρε Με Απόψε Πάρε Με (Με Τη Γλυκερία).wav" WAVE
    INDEX 01 00:00:00
  TRACK 09 AUDIO
    TITLE "Τσιγγάνα"
    PERFORMER "Νίκος Ζιώγαλας "
    INDEX 00 03:21:50
FILE "09. Τσιγγάνα.wav" WAVE
    INDEX 01 00:00:00
  TRACK 10 AUDIO
    TITLE "Το 'Αχ' Που Με Λυτρώνει"
    PERFORMER "Νίκος Ζιώγαλας "
    INDEX 00 03:50:43
FILE "10. Το 'Αχ' Που Με Λυτρώνει.wav" WAVE
    INDEX 01 00:00:00
  TRACK 11 AUDIO
    TITLE "Από Ποτήρια Χωριστά"
    PERFORMER "Νίκος Ζιώγαλας "
    INDEX 00 03:46:28
FILE "11. Από Ποτήρια Χωριστά.wav" WAVE
    INDEX 01 00:00:00
  TRACK 12 AUDIO
    TITLE "Του Γάμου"
    PERFORMER "Νίκος Ζιώγαλας "
    INDEX 00 03:38:25
FILE "12. Του Γάμου.wav" WAVE
    INDEX 01 00:00:00
Правила, инструкции, FAQ!!!
Торрент  Добавлен [26 мар 2019, 19:09] Скачать торрент Магнет ссылка
Скачать торрент
[ Размер 18.53 КБ / Просмотров 0 ]

Статус
Проверен 
 
Размер  683.52 МБ
Приватный: Нет (DHT включён)
.torrent скачан  0
 


     Отправить личное сообщение
   
Страница 1 из 1
Показать сообщения за:  Поле сортировки  
Начать новую тему Ответить на тему


Сейчас этот форум просматривают: нет зарегистрированных пользователей и гости: 0


Вы не можете начинать темы
Вы не можете отвечать на сообщения
Вы не можете редактировать свои сообщения
Вы не можете удалять свои сообщения
Вы не можете добавлять вложения

Перейти:  
cron