Начать новую тему Ответить на тему
Статистика раздачи
Размер: 303.12 МБ | Добавлен: 26 мар 2019, 19:38 | Скачали: 0
Сидеров: 1  [0 байт/сек]    Личеров: 1  [0 байт/сек]
Пред. тема | След. тема 

Автор
Сообщение

СообщениеДобавлено: 26 мар 2019, 19:38 

Ответить с цитатой 

Eisblume - Unter dem Eis
Жанр: Gotic Pop Rock
Год выпуска диска: 2009
Производитель диска: Germany
Аудио кодек: APE
Тип рипа: image+.cue
Битрейт аудио: lossless
Продолжительность: 47:39
Трэклист:
01.Daemmerung
02.Eisblumen
03.Zeit bleibt nicht stehen
04.Leben ist schoen
05.Ueberleben
06.Land in sicht
07.Hoffnung(Interlude)
08.Zeit zu gehen
09.Stern
10.Liebe heisst schmerz
11.Sieben mal
12.Unter dem eis
13.Louise
Код:
Отчёт EAC об извлечении, выполненном 30. мая 2009, 8:26
Eisblume / Unter dem Eis
Дисковод: _NEC    DV-5800E   Adapter: 4  ID: 1
Режим чтения                 : Достоверность
Использование точного потока : Да
Отключение кэша аудио        : Да
Использование указателей C2  : Нет
Коррекция смещения при чтении                     : 48
Способность читать области Lead-in и Lead-out     : Нет
Заполнение пропущенных сэмплов тишиной            : Да
Удаление блоков с тишиной в начале и конце        : Нет
При вычислениях CRC использовались нулевые сэмплы : Да
Интерфейс                                         : Встроенный Win32-интерфейс для Win NT/2000
Выходной формат : Monkey's Audio Lossless Encoder v3.99 DLL
Формат сэмплов  : Fast Lossless Compression
TOC извлечённого CD
     Трек |   Старт  | Длительность | Начальный сектор | Конечный сектор
    ---------------------------------------------------------------------
       1  |  0:00.00 |    1:19.47   |           0      |       5971
       2  |  1:19.47 |    3:47.09   |        5972      |      23005
       3  |  5:06.56 |    3:29.23   |       23006      |      38703
       4  |  8:36.04 |    3:40.01   |       38704      |      55204
       5  | 12:16.05 |    3:57.10   |       55205      |      72989
       6  | 16:13.15 |    4:16.73   |       72990      |      92262
       7  | 20:30.13 |    4:25.47   |       92263      |     112184
       8  | 24:55.60 |    4:18.00   |      112185      |     131534
       9  | 29:13.60 |    3:37.20   |      131535      |     147829
      10  | 32:51.05 |    3:18.42   |      147830      |     162721
      11  | 36:09.47 |    3:43.61   |      162722      |     179507
      12  | 39:53.33 |    4:12.64   |      179508      |     198471
      13  | 44:06.22 |    3:32.29   |      198472      |     214400
      14  | 50:10.51 |   16:44.48   |      225801      |     301148
Характеристики диапазона извлечения и сообщения об ошибках
Выбранный диапазон
     Имя файла C:\Users\Владимир\Documents\Eisblume - Unter dem Eis.ape
     Пиковый уровень 98.8 %
     Качество диапазона 100.0 %
     CRC копии 54DB3648
     Копирование... OK
Ошибок не произошло
Конец отчёта
Правила, инструкции, FAQ!!!
Торрент  Добавлен [26 мар 2019, 19:38] Скачать торрент Магнет ссылка
Скачать торрент
[ Размер 12.66 КБ / Просмотров 8 ]

Статус
Проверен 
 
Размер  303.12 МБ
Приватный: Нет (DHT включён)
.torrent скачан  0
 


     Отправить личное сообщение
   
Страница 1 из 1
Показать сообщения за:  Поле сортировки  
Начать новую тему Ответить на тему


Сейчас этот форум просматривают: нет зарегистрированных пользователей и гости: 0


Вы не можете начинать темы
Вы не можете отвечать на сообщения
Вы не можете редактировать свои сообщения
Вы не можете удалять свои сообщения
Вы не можете добавлять вложения

Перейти:  
cron