Начать новую тему Ответить на тему
Статистика раздачи
Размер: 344.76 МБ | Добавлен: 26 июн 2020, 17:54 | Скачали: 1
Сидеров: 0  [0 байт/сек]    Личеров: 0  [0 байт/сек]
Пред. тема | След. тема 

Автор
Сообщение

СообщениеДобавлено: 26 июн 2020, 17:54 

Ответить с цитатой 

Collide / Counting To Zero
Жанр: Gothic, Industrial, Electronic, Female Vocalist
Носитель: CD
Год издания: 2011
Издатель (лейбл): Noiseplus Music
Страна исполнителя (группы): USA
Аудиокодек: FLAC (*.flac)
Тип рипа: tracks+.cue
Битрейт аудио: lossless
Продолжительность: 00:57:02
Источник (релизер): what.cd
Наличие сканов в содержимом раздачи: нет
Треклист:
01. Bending and Floating
02. Lucky 13
03. Mind Games
04. In the Frequency
05. Clearer
06. Counting to Zero
07. Human
08. Tears Like Rain
09. Further From Anything
10. Slow Down
11. Letting Go
Код:
Exact Audio Copy V1.0 beta 3 from 29. August 2011
EAC extraction logfile from 15. January 2012, 2:34
Collide / Counting to Zero
Used drive  : TSSTcorpCDDVDW TS-L633C   Adapter: 0  ID: 1
Read mode               : Secure
Utilize accurate stream : Yes
Defeat audio cache      : Yes
Make use of C2 pointers : No
Read offset correction                      : 6
Overread into Lead-In and Lead-Out          : No
Fill up missing offset samples with silence : Yes
Delete leading and trailing silent blocks   : No
Null samples used in CRC calculations       : Yes
Used interface                              : Native Win32 interface for Win NT & 2000
Gap handling                                : Appended to previous track
Used output format              : User Defined Encoder
Selected bitrate                : 1024 kBit/s
Quality                         : High
Add ID3 tag                     : No
Command line compressor         : C:\Program Files (x86)\FLAC\flac.exe
Additional command line options : -8 -V -T "ARTIST=%artist%" -T "TITLE=%title%" -T "ALBUM=%albumtitle%" -T "DATE=%year%" -T "TRACKNUMBER=%tracknr%" -T "GENRE=%genre%" -T "COMMENT=%comment%" -T "BAND=%albuminterpret%" -T "COMPOSER=%composer%" %source%
TOC of the extracted CD
     Track |   Start  |  Length  | Start sector | End sector
    ---------------------------------------------------------
        1  |  0:00.00 |  4:15.21 |         0    |    19145
        2  |  4:15.21 |  5:34.25 |     19146    |    44220
        3  |  9:49.46 |  4:58.25 |     44221    |    66595
        4  | 14:47.71 |  5:30.33 |     66596    |    91378
        5  | 20:18.29 |  5:49.05 |     91379    |   117558
        6  | 26:07.34 |  5:48.63 |    117559    |   143721
        7  | 31:56.22 |  5:09.48 |    143722    |   166944
        8  | 37:05.70 |  3:13.02 |    166945    |   181421
        9  | 40:18.72 |  6:35.33 |    181422    |   211079
       10  | 46:54.30 |  4:52.11 |    211080    |   232990
       11  | 51:46.41 |  5:19.31 |    232991    |   256946
Track  1
     Filename D:\EACrips\Collide-Counting_to_Zero\Bending_and_Floating-Collide-Counting_to_Zero-01.wav
     Pre-gap length  0:00:02.00
     Peak level 98.8 %
     Extraction speed 24.9 X
     Track quality 99.9 %
     Test CRC A3761CB0
     Copy CRC A3761CB0
     Track not present in AccurateRip database
     Copy OK
Track  2
     Filename D:\EACrips\Collide-Counting_to_Zero\Lucky_13-Collide-Counting_to_Zero-02.wav
     Peak level 98.8 %
     Extraction speed 29.7 X
     Track quality 99.9 %
     Test CRC 991125B0
     Copy CRC 991125B0
     Track not present in AccurateRip database
     Copy OK
Track  3
     Filename D:\EACrips\Collide-Counting_to_Zero\Mind_Games-Collide-Counting_to_Zero-03.wav
     Pre-gap length  0:00:01.37
     Peak level 98.8 %
     Extraction speed 36.0 X
     Track quality 100.0 %
     Test CRC CEA5715B
     Copy CRC CEA5715B
     Track not present in AccurateRip database
     Copy OK
Track  4
     Filename D:\EACrips\Collide-Counting_to_Zero\In_the_Frequency-Collide-Counting_to_Zero-04.wav
     Peak level 98.8 %
     Extraction speed 39.6 X
     Track quality 100.0 %
     Test CRC A6789532
     Copy CRC A6789532
     Track not present in AccurateRip database
     Copy OK
Track  5
     Filename D:\EACrips\Collide-Counting_to_Zero\Clearer-Collide-Counting_to_Zero-05.wav
     Pre-gap length  0:00:00.15
     Peak level 98.8 %
     Extraction speed 43.1 X
     Track quality 100.0 %
     Test CRC BAE89865
     Copy CRC BAE89865
     Track not present in AccurateRip database
     Copy OK
Track  6
     Filename D:\EACrips\Collide-Counting_to_Zero\Couting_to_Zero-Collide-Counting_to_Zero-06.wav
     Pre-gap length  0:00:00.46
     Peak level 98.8 %
     Extraction speed 46.0 X
     Track quality 100.0 %
     Test CRC 235B801B
     Copy CRC 235B801B
     Track not present in AccurateRip database
     Copy OK
Track  7
     Filename D:\EACrips\Collide-Counting_to_Zero\Human-Collide-Counting_to_Zero-07.wav
     Peak level 79.9 %
     Extraction speed 48.1 X
     Track quality 100.0 %
     Test CRC FC50AEDA
     Copy CRC FC50AEDA
     Track not present in AccurateRip database
     Copy OK
Track  8
     Filename D:\EACrips\Collide-Counting_to_Zero\Tears_Like_Rain-Collide-Counting_to_Zero-08.wav
     Peak level 98.8 %
     Extraction speed 46.6 X
     Track quality 100.0 %
     Test CRC 528BCA53
     Copy CRC 528BCA53
     Track not present in AccurateRip database
     Copy OK
Track  9
     Filename D:\EACrips\Collide-Counting_to_Zero\Further_From_Anything-Collide-Counting_to_Zero-09.wav
     Peak level 98.8 %
     Extraction speed 53.2 X
     Track quality 100.0 %
     Test CRC 627BFD67
     Copy CRC 627BFD67
     Track not present in AccurateRip database
     Copy OK
Track 10
     Filename D:\EACrips\Collide-Counting_to_Zero\Slow_Down-Collide-Counting_to_Zero-10.wav
     Peak level 98.8 %
     Extraction speed 48.8 X
     Track quality 99.9 %
     Test CRC 3045FE61
     Copy CRC 3045FE61
     Track not present in AccurateRip database
     Copy OK
Track 11
     Filename D:\EACrips\Collide-Counting_to_Zero\Letting_Go-Collide-Counting_to_Zero-11.wav
     Peak level 98.8 %
     Extraction speed 56.3 X
     Track quality 100.0 %
     Test CRC A3DB101E
     Copy CRC A3DB101E
     Track not present in AccurateRip database
     Copy OK
None of the tracks are present in the AccurateRip database
No errors occurred
End of status report
---- CUETools DB Plugin V2.1.3
[CTDB TOCID: bghDFeOG1_1T6NMrV6c1znnN92A-] found, Submit result: already submitted
[53ea45ac] (3/3) Accurately ripped
==== Log checksum 2445A7C8F08F8EE804907DAF6D97D345B79DD2CF8EF00A9F2BDC0A09D0BBBAF8 ====
Код:
REM GENRE Trip-Hop
REM DATE 2011
REM DISCID 970D610B
REM COMMENT "ExactAudioCopy v1.0b3"
CATALOG 0808458014026
PERFORMER "Collide"
TITLE "Counting to Zero"
FILE "Collide-Counting_to_Zero\Bending_and_Floating-Collide-Counting_to_Zero-01.wav" WAVE
  TRACK 01 AUDIO
    TITLE "Bending and Floating"
    PERFORMER "Collide"
    ISRC USDDP1100001
    INDEX 01 00:00:00
FILE "Collide-Counting_to_Zero\Lucky_13-Collide-Counting_to_Zero-02.wav" WAVE
  TRACK 02 AUDIO
    TITLE "Lucky 13"
    PERFORMER "Collide"
    ISRC USDDP1100002
    INDEX 01 00:00:00
  TRACK 03 AUDIO
    TITLE "Mind Games"
    PERFORMER "Collide"
    ISRC USDDP1100003
    INDEX 00 05:32:63
FILE "Collide-Counting_to_Zero\Mind_Games-Collide-Counting_to_Zero-03.wav" WAVE
    INDEX 01 00:00:00
FILE "Collide-Counting_to_Zero\In_the_Frequency-Collide-Counting_to_Zero-04.wav" WAVE
  TRACK 04 AUDIO
    TITLE "In the Frequency"
    PERFORMER "Collide"
    ISRC USDDP1100004
    INDEX 01 00:00:00
  TRACK 05 AUDIO
    TITLE "Clearer"
    PERFORMER "Collide"
    ISRC USDDP1100005
    INDEX 00 05:30:18
FILE "Collide-Counting_to_Zero\Clearer-Collide-Counting_to_Zero-05.wav" WAVE
    INDEX 01 00:00:00
  TRACK 06 AUDIO
    TITLE "Couting to Zero"
    PERFORMER "Collide"
    ISRC USDDP1100006
    INDEX 00 05:48:34
FILE "Collide-Counting_to_Zero\Couting_to_Zero-Collide-Counting_to_Zero-06.wav" WAVE
    INDEX 01 00:00:00
FILE "Collide-Counting_to_Zero\Human-Collide-Counting_to_Zero-07.wav" WAVE
  TRACK 07 AUDIO
    TITLE "Human"
    PERFORMER "Collide"
    ISRC USDDP1100007
    INDEX 01 00:00:00
FILE "Collide-Counting_to_Zero\Tears_Like_Rain-Collide-Counting_to_Zero-08.wav" WAVE
  TRACK 08 AUDIO
    TITLE "Tears Like Rain"
    PERFORMER "Collide"
    ISRC USDDP1100008
    INDEX 01 00:00:00
FILE "Collide-Counting_to_Zero\Further_From_Anything-Collide-Counting_to_Zero-09.wav" WAVE
  TRACK 09 AUDIO
    TITLE "Further From Anything"
    PERFORMER "Collide"
    ISRC USDDP1100009
    INDEX 01 00:00:00
FILE "Collide-Counting_to_Zero\Slow_Down-Collide-Counting_to_Zero-10.wav" WAVE
  TRACK 10 AUDIO
    TITLE "Slow Down"
    PERFORMER "Collide"
    ISRC USDDP1100010
    INDEX 01 00:00:00
FILE "Collide-Counting_to_Zero\Letting_Go-Collide-Counting_to_Zero-11.wav" WAVE
  TRACK 11 AUDIO
    TITLE "Letting Go"
    PERFORMER "Collide"
    ISRC USDDP1100010
    INDEX 01 00:00:00
Код:
Начато: суббота, 25. 07. 2015. - 0:41.52
Найдено файлов: 11
01 -===- E:\DOWNLOADS\Загруженные\Collide - Counting To Zero\01. Bending And Floating.flac
  Извлечение успешно выполнено
  Заключение: этот трек - CDDA с вероятностью 100%
  Временный файл удалён.
02 -===- E:\DOWNLOADS\Загруженные\Collide - Counting To Zero\02. Lucky 13.flac
  Извлечение успешно выполнено
  Заключение: этот трек - CDDA с вероятностью 100%
  Временный файл удалён.
03 -===- E:\DOWNLOADS\Загруженные\Collide - Counting To Zero\03. Mind Games.flac
  Извлечение успешно выполнено
  Заключение: этот трек - CDDA с вероятностью 100%
  Временный файл удалён.
04 -===- E:\DOWNLOADS\Загруженные\Collide - Counting To Zero\04. In The Frequency.flac
  Извлечение успешно выполнено
  Заключение: этот трек - CDDA с вероятностью 100%
  Временный файл удалён.
05 -===- E:\DOWNLOADS\Загруженные\Collide - Counting To Zero\05. Clearer.flac
  Извлечение успешно выполнено
  Заключение: этот трек - CDDA с вероятностью 99%
  Временный файл удалён.
06 -===- E:\DOWNLOADS\Загруженные\Collide - Counting To Zero\06. Couting To Zero.flac
  Извлечение успешно выполнено
  Заключение: этот трек - CDDA с вероятностью 100%
  Временный файл удалён.
07 -===- E:\DOWNLOADS\Загруженные\Collide - Counting To Zero\07. Human.flac
  Извлечение успешно выполнено
  Заключение: этот трек - CDDA с вероятностью 99%
  Временный файл удалён.
08 -===- E:\DOWNLOADS\Загруженные\Collide - Counting To Zero\08. Tears Like Rain.flac
  Извлечение успешно выполнено
  Заключение: этот трек - CDDA с вероятностью 100%
  Временный файл удалён.
09 -===- E:\DOWNLOADS\Загруженные\Collide - Counting To Zero\09. Further From Anything.flac
  Извлечение успешно выполнено
  Заключение: этот трек - CDDA с вероятностью 100%
  Временный файл удалён.
10 -===- E:\DOWNLOADS\Загруженные\Collide - Counting To Zero\10. Slow Down.flac
  Извлечение успешно выполнено
  Заключение: этот трек - CDDA с вероятностью 100%
  Временный файл удалён.
11 -===- E:\DOWNLOADS\Загруженные\Collide - Counting To Zero\11. Letting Go.flac
  Извлечение успешно выполнено
  Заключение: этот трек - CDDA с вероятностью 99%
  Временный файл удалён.
Завершено: суббота, 25. 07. 2015. - 0:46.48 (Время операции: 0:04.56)
Правила, инструкции, FAQ!!!
Торрент  Добавлен [26 июн 2020, 17:54] Скачать торрент Магнет ссылка
Скачать торрент
[ Размер 14.63 КБ / Просмотров 7 ]

Статус
Проверен 
 
Размер  344.76 МБ
Приватный: Нет (DHT включён)
.torrent скачан  1
 


     Отправить личное сообщение
   
Страница 1 из 1
Показать сообщения за:  Поле сортировки  
Начать новую тему Ответить на тему


Сейчас этот форум просматривают: нет зарегистрированных пользователей и гости: 0


Вы не можете начинать темы
Вы не можете отвечать на сообщения
Вы не можете редактировать свои сообщения
Вы не можете удалять свои сообщения
Вы не можете добавлять вложения

Перейти:  
cron