Начать новую тему Ответить на тему
Статистика раздачи
Размер: 538.95 МБ | Добавлен: 26 июн 2020, 17:43 | Скачали: 0
Сидеров: 0  [0 байт/сек]    Личеров: 0  [0 байт/сек]
Пред. тема | След. тема 

Автор
Сообщение

СообщениеДобавлено: 26 июн 2020, 17:43 

Ответить с цитатой 

Das Ich - Relikt (2004 Reissue)
Жанр: Gothic Industrial/EBM, Darkwave
Год выпуска диска: 2003
Производитель диска: Германия
Аудио кодек: FLAC
Тип рипа: tracks+.cue
Битрейт аудио: lossless
Продолжительность: 01:18:05
Источник: Диск, купленный на концерте Das Ich в НН. Оригинальное однодисковое переиздание 2004 года (оригинал выпущен в 2003 году с дополнительным диском).
discogs http://www.discogs.com/Das-Ich-Relikt/release/1350032
wiki http://en.wikipedia.org/wiki/Das_ich
last.fm http://www.lastfm.ru/music/Das+Ich
Трэклист:01. Kindgott (Ext. Version) [00:04:21]
02. Von Der Armut (Ext. Version) [00:06:18]
03. Kain Und Abel [00:05:32]
04. Das Dunkle Land [00:05:48]
05. Schwanenschrei [00:06:00]
06. Gott Ist Tot (Kindgott Version) [00:05:37]
07. Erde Ruft [00:04:42]
08. Garten Eden [00:06:47]
09. Hass [00:07:08]
10. Destillat (Club Version) [00:04:17]
11. Reanimat [00:04:25]
12. Unschuld Erde [00:06:06]
13. Die Propheten [00:07:27]
14. Jericho [00:03:30]

Код:
Exact Audio Copy V0.99 prebeta 4 from 23. January 2008
EAC extraction logfile from 7. April 2009, 13:51
Das Ich / Relikt
Used drive  : BENQ    DVD LS DW1655   Adapter: 4  ID: 0
Read mode               : Secure
Utilize accurate stream : Yes
Defeat audio cache      : Yes
Make use of C2 pointers : No
Read offset correction                      : 618
Overread into Lead-In and Lead-Out          : No
Fill up missing offset samples with silence : Yes
Delete leading and trailing silent blocks   : No
Null samples used in CRC calculations       : Yes
Used interface                              : Installed external ASPI interface
Gap handling                                : Appended to previous track
Used output format              : User Defined Encoder
Selected bitrate                : 128 kBit/s
Quality                         : High
Add ID3 tag                     : No
Command line compressor         : D:\Program Files\FLAC\flac.exe
Additional command line options : -V -8 -T "artist=%a" -T "title=%t" -T "album=%g" -T "date=%y" -T "tracknumber=%n" -T "genre=%m" %s
TOC of the extracted CD
     Track |   Start  |  Length  | Start sector | End sector
    ---------------------------------------------------------
        1  |  0:00.00 |  4:21.49 |         0    |    19623
        2  |  4:21.49 |  6:18.20 |     19624    |    47993
        3  | 10:39.69 |  5:32.48 |     47994    |    72941
        4  | 16:12.42 |  5:48.47 |     72942    |    99088
        5  | 22:01.14 |  6:00.17 |     99089    |   126105
        6  | 28:01.31 |  5:37.64 |    126106    |   151444
        7  | 33:39.20 |  4:42.37 |    151445    |   172631
        8  | 38:21.57 |  6:47.28 |    172632    |   203184
        9  | 45:09.10 |  7:08.70 |    203185    |   235354
       10  | 52:18.05 |  4:17.18 |    235355    |   254647
       11  | 56:35.23 |  4:25.56 |    254648    |   274578
       12  | 61:01.04 |  6:06.71 |    274579    |   302099
       13  | 67:08.00 |  7:27.36 |    302100    |   335660
       14  | 74:35.36 |  3:30.14 |    335661    |   351424
Track  1
     Filename I:\01. Kindgott (Ext. Version).wav
     Pre-gap length  0:00:02.00
     Peak level 100.0 %
     Track quality 99.9 %
     Test CRC 34D294EA
     Copy CRC 34D294EA
     Accurately ripped (confidence 4)  [D40DBFBD]
     Copy OK
Track  2
     Filename I:\02. Von Der Armut (Ext. Version).wav
     Pre-gap length  0:00:02.00
     Peak level 100.0 %
     Track quality 100.0 %
     Test CRC 0F3C6EA9
     Copy CRC 0F3C6EA9
     Accurately ripped (confidence 4)  [19887542]
     Copy OK
Track  3
     Filename I:\03. Kain Und Abel.wav
     Pre-gap length  0:00:02.00
     Peak level 100.0 %
     Track quality 100.0 %
     Test CRC 3A03A7C2
     Copy CRC 3A03A7C2
     Accurately ripped (confidence 4)  [B176173C]
     Copy OK
Track  4
     Filename I:\04. Das Dunkle Land.wav
     Pre-gap length  0:00:02.00
     Peak level 100.0 %
     Track quality 100.0 %
     Test CRC 6D0E2CBE
     Copy CRC 6D0E2CBE
     Accurately ripped (confidence 4)  [34991C3D]
     Copy OK
Track  5
     Filename I:\05. Schwanenschrei.wav
     Pre-gap length  0:00:02.00
     Peak level 100.0 %
     Track quality 100.0 %
     Test CRC 2CCDAB9C
     Copy CRC 2CCDAB9C
     Accurately ripped (confidence 4)  [5EBB8103]
     Copy OK
Track  6
     Filename I:\06. Gott Ist Tot (Kindgott-Version).wav
     Pre-gap length  0:00:02.00
     Peak level 100.0 %
     Track quality 100.0 %
     Test CRC 768F783E
     Copy CRC 768F783E
     Accurately ripped (confidence 4)  [A4C11F90]
     Copy OK
Track  7
     Filename I:\07. Erde Ruft.wav
     Pre-gap length  0:00:02.00
     Peak level 100.0 %
     Track quality 100.0 %
     Test CRC AEDA017B
     Copy CRC AEDA017B
     Accurately ripped (confidence 4)  [57E57901]
     Copy OK
Track  8
     Filename I:\08. Garten Eden.wav
     Pre-gap length  0:00:02.00
     Peak level 100.0 %
     Track quality 100.0 %
     Test CRC B7BAB9A4
     Copy CRC B7BAB9A4
     Accurately ripped (confidence 4)  [63978235]
     Copy OK
Track  9
     Filename I:\09. Hass.wav
     Pre-gap length  0:00:02.00
     Peak level 100.0 %
     Track quality 100.0 %
     Test CRC 9A10E080
     Copy CRC 9A10E080
     Accurately ripped (confidence 4)  [24C61A5B]
     Copy OK
Track 10
     Filename I:\10. Destillat (New Club Version).wav
     Pre-gap length  0:00:02.00
     Peak level 100.0 %
     Track quality 100.0 %
     Test CRC 02C6FBC3
     Copy CRC 02C6FBC3
     Accurately ripped (confidence 4)  [1889B895]
     Copy OK
Track 11
     Filename I:\11. Reanimat.wav
     Pre-gap length  0:00:02.00
     Peak level 100.0 %
     Track quality 100.0 %
     Test CRC 029B0592
     Copy CRC 029B0592
     Accurately ripped (confidence 4)  [9F8EB3FB]
     Copy OK
Track 12
     Filename I:\12. Unschuld Erde.wav
     Pre-gap length  0:00:02.00
     Peak level 100.0 %
     Track quality 99.9 %
     Test CRC 21B0BC45
     Copy CRC 21B0BC45
     Accurately ripped (confidence 4)  [199681B9]
     Copy OK
Track 13
     Filename I:\13. Die Propheten.wav
     Pre-gap length  0:00:02.00
     Peak level 100.0 %
     Track quality 100.0 %
     Test CRC 6F5F912A
     Copy CRC 6F5F912A
     Accurately ripped (confidence 4)  [80F65CC7]
     Copy OK
Track 14
     Filename I:\14. Jericho.wav
     Pre-gap length  0:00:02.00
     Peak level 100.0 %
     Track quality 99.9 %
     Test CRC FC45951C
     Copy CRC FC45951C
     Accurately ripped (confidence 4)  [0747BFB2]
     Copy OK
All tracks accurately ripped
No errors occurred
End of status report
Правила, инструкции, FAQ!!!
Торрент  Добавлен [26 июн 2020, 17:43] Скачать торрент Магнет ссылка
Скачать торрент
[ Размер 11.94 КБ / Просмотров 8 ]

Статус
Проверен 
 
Размер  538.95 МБ
Приватный: Нет (DHT включён)
.torrent скачан  0
 


     Отправить личное сообщение
   
Страница 1 из 1
Показать сообщения за:  Поле сортировки  
Начать новую тему Ответить на тему


Сейчас этот форум просматривают: нет зарегистрированных пользователей и гости: 0


Вы не можете начинать темы
Вы не можете отвечать на сообщения
Вы не можете редактировать свои сообщения
Вы не можете удалять свои сообщения
Вы не можете добавлять вложения

Перейти:  
cron