Начать новую тему Ответить на тему
Статистика раздачи
Размер: 429.14 МБ | Добавлен: 26 июн 2020, 17:03 | Скачали: 0
Сидеров: 0  [0 байт/сек]    Личеров: 0  [0 байт/сек]
Пред. тема | След. тема 

Автор
Сообщение

СообщениеДобавлено: 26 июн 2020, 17:03 

Ответить с цитатой 

Inscape / Lichtjahrhundert
Жанр: Gothic Electro, EBM, Synth-pop
Страна-производитель диска: Germany
Год издания диска: 2002
Издатель (лейбл): Out Of Line Records
Номер по каталогу: OUT 081
Страна: Germany
Аудио кодек: FLAC (*.flac)
Тип рипа: image+.cue
Битрейт аудио: lossless
Продолжительность: 01:00:35
Источник (релизер): Физический носитель
Наличие сканов в содержимом раздачи: нет
Треклист:
01. Nachtjäger (03:49)
02. Kleine Liebe (04:04)
03. Traumzeit (03:49)
04. 14.4.2010 (04:17)
05. Skarabäus (04:29)
06. Butterfly Construct (04:35)
07. Gevatter Tod (03:41)
08. Lichtjahrhundert (04:12)
09. Halt Mich Fest (04:05)
10. Second Skin (04:07)
11. Reine Seele (04:53)
12. Scars Are Sexy (03:40)
13. Mein Ist Die Leidenschaft (05:52)
14. Heilige Nacht (05:05)
Код:
Exact Audio Copy V0.99 prebeta 5 from 4. May 2009
Отчёт EAC об извлечении, выполненном 28. сентября 2010, 21:18
Inscape / Lichtjahrhundert
Дисковод: _NEC    DVD_RW ND-4550A   Adapter: 0  ID: 2
Режим чтения                 : Достоверность
Использование точного потока : Да
Отключение кэша аудио        : Да
Использование указателей C2  : Нет
Коррекция смещения при чтении                     : 48
Способность читать области Lead-in и Lead-out     : Нет
Заполнение пропущенных сэмплов тишиной            : Да
Удаление блоков с тишиной в начале и конце        : Нет
При вычислениях CRC использовались нулевые сэмплы : Нет
Интерфейс                                         : Встроенный Win32-интерфейс для Win NT/2000
Выходной формат : Внутренние WAV-операции
Формат сэмплов  : 44.100 Гц; 16 бит; стерео
TOC извлечённого CD
     Трек |   Старт  | Длительность | Начальный сектор | Конечный сектор
    ---------------------------------------------------------------------
       1  |  0:00.00 |    3:48.60   |           0      |      17159
       2  |  3:48.60 |    4:04.31   |       17160      |      35490
       3  |  7:53.16 |    3:49.20   |       35491      |      52685
       4  | 11:42.36 |    4:17.42   |       52686      |      72002
       5  | 16:00.03 |    4:28.55   |       72003      |      92157
       6  | 20:28.58 |    4:34.43   |       92158      |     112750
       7  | 25:03.26 |    3:40.61   |      112751      |     129311
       8  | 28:44.12 |    4:11.48   |      129312      |     148184
       9  | 32:55.60 |    4:05.11   |      148185      |     166570
      10  | 37:00.71 |    4:07.16   |      166571      |     185111
      11  | 41:08.12 |    4:53.34   |      185112      |     207120
      12  | 46:01.46 |    3:40.24   |      207121      |     223644
      13  | 49:41.70 |    5:51.48   |      223645      |     250017
      14  | 55:33.43 |    5:05.45   |      250018      |     272937
Характеристики диапазона извлечения и сообщения об ошибках
Выбранный диапазон
     Имя файла G:\Inscape - Lichtjahrhundert\Inscape - Lichtjahrhundert.wav
     Пиковый уровень 93.7 %
     Качество диапазона 100.0 %
     CRC копии 096FED23
     Копирование... OK
Ошибок не произошло
AccurateRip: сводка
Трек  1  точное извлечение (доверие 4)  [DF906BAF]
Трек  2  точное извлечение (доверие 4)  [9FA12B5B]
Трек  3  точное извлечение (доверие 4)  [75AF4BA5]
Трек  4  точное извлечение (доверие 4)  [6B520D5F]
Трек  5  точное извлечение (доверие 4)  [2E9D3AF2]
Трек  6  точное извлечение (доверие 4)  [EB1B482F]
Трек  7  точное извлечение (доверие 4)  [2C4B02FB]
Трек  8  точное извлечение (доверие 4)  [37481539]
Трек  9  точное извлечение (доверие 4)  [AB0245BE]
Трек 10  точное извлечение (доверие 4)  [54DD9FFD]
Трек 11  точное извлечение (доверие 4)  [E73C17DC]
Трек 12  точное извлечение (доверие 4)  [16C202B7]
Трек 13  точное извлечение (доверие 4)  [9AFD2DFD]
Трек 14  точное извлечение (доверие 4)  [A3C20FD6]
Все треки извлечены точно
Конец отчёта
Код:
REM DISCID B70E370E
REM COMMENT "ExactAudioCopy v0.99pb5"
PERFORMER "Inscape"
TITLE "Lichtjahrhundert"
FILE "Inscape - Lichtjahrhundert.wav" WAVE
  TRACK 01 AUDIO
    TITLE "Nachtjдger"
    PERFORMER "Inscape"
    INDEX 01 00:00:00
  TRACK 02 AUDIO
    TITLE "Kleine Liebe"
    PERFORMER "Inscape"
    INDEX 00 03:46:60
    INDEX 01 03:48:60
  TRACK 03 AUDIO
    TITLE "Traumzeit"
    PERFORMER "Inscape"
    INDEX 00 07:51:16
    INDEX 01 07:53:16
  TRACK 04 AUDIO
    TITLE "14.4.2010"
    PERFORMER "Inscape"
    INDEX 00 11:40:31
    INDEX 01 11:42:36
  TRACK 05 AUDIO
    TITLE "Skarabдus"
    PERFORMER "Inscape"
    INDEX 00 15:58:03
    INDEX 01 16:00:03
  TRACK 06 AUDIO
    TITLE "Butterfly Construct"
    PERFORMER "Inscape"
    INDEX 00 20:26:58
    INDEX 01 20:28:58
  TRACK 07 AUDIO
    TITLE "Gevatter Tod"
    PERFORMER "Inscape"
    INDEX 00 25:01:26
    INDEX 01 25:03:26
  TRACK 08 AUDIO
    TITLE "Lichjahrhundert"
    PERFORMER "Inscape"
    INDEX 00 28:42:12
    INDEX 01 28:44:12
  TRACK 09 AUDIO
    TITLE "Halt mich fest"
    PERFORMER "Inscape"
    INDEX 00 32:53:60
    INDEX 01 32:55:60
  TRACK 10 AUDIO
    TITLE "Second Skin"
    PERFORMER "Inscape"
    INDEX 00 36:58:71
    INDEX 01 37:00:71
  TRACK 11 AUDIO
    TITLE "Reine Seele"
    PERFORMER "Inscape"
    INDEX 00 41:06:12
    INDEX 01 41:08:12
  TRACK 12 AUDIO
    TITLE "Scars are sexy"
    PERFORMER "Inscape"
    INDEX 00 45:59:55
    INDEX 01 46:01:46
  TRACK 13 AUDIO
    TITLE "Mein ist die Leidenschaft"
    PERFORMER "Inscape"
    INDEX 00 49:40:05
    INDEX 01 49:41:70
  TRACK 14 AUDIO
    TITLE "Heilige Nacht"
    PERFORMER "Inscape"
    INDEX 00 55:31:43
    INDEX 01 55:33:43
Код:
Started at: вторник, 28. 09. 2010. - 21:30.08
1 file found
1 -===- G:\Inscape - Lichtjahrhundert (2002)\Inscape - Lichtjahrhundert.wav
  Conclusion: this track is CDDA with probability 100%
Finished at: вторник, 28. 09. 2010. - 21:38.12 (operation time: 0:08.04)
Правила, инструкции, FAQ!!!
Торрент  Добавлен [26 июн 2020, 17:03] Скачать торрент Магнет ссылка
Скачать торрент
[ Размер 17.46 КБ / Просмотров 4 ]

Статус
Проверен 
 
Размер  429.14 МБ
Приватный: Нет (DHT включён)
.torrent скачан  0
 


     Отправить личное сообщение
   
Страница 1 из 1
Показать сообщения за:  Поле сортировки  
Начать новую тему Ответить на тему


Сейчас этот форум просматривают: нет зарегистрированных пользователей и гости: 0


Вы не можете начинать темы
Вы не можете отвечать на сообщения
Вы не можете редактировать свои сообщения
Вы не можете удалять свои сообщения
Вы не можете добавлять вложения

Перейти:  
cron