Начать новую тему Ответить на тему
Статистика раздачи
Размер: 373.35 МБ | Добавлен: 11 окт 2020, 15:18 | Скачали: 1
Сидеров: 2  [0 байт/сек]    Личеров: 0  [0 байт/сек]
Пред. тема | След. тема 

Автор
Сообщение

СообщениеДобавлено: 11 окт 2020, 15:18 

Ответить с цитатой 

The Great Gospel Women


Жанр: Gospel
Носитель: CD
Страна-производитель диска (релиза): USA
Год издания: 1993
Издатель (лейбл): Shanache
Номер по каталогу: 6004
Страна исполнителя (группы): USA
Аудиокодек: FLAC (*.flac)
Тип рипа: tracks+.cue
Продолжительность: 01:16:23
Источник: Сеть
Наличие сканов в содержимом раздачи: да
1. Mahalia Jackson – Just A Closer Walk With Thee ("Live")
2. Mahalia Jackson – These Are They
3. Mahalia Jackson – Just As I Am
4. Mahalia Jackson – Dig A Little Deeper
5. Mahalia Jackson – Just Over The Hill
6. Mahalia Jackson – Just Keep Still
7. Willie Mae Ford Smith – What Manner Of Man Is This
8. Roberta Martin – What A Friend
9. Sister Rosetta Tharpe – I Looked Down The Line
10. Sister Rosetta Tharpe – Nobody's Fault But Mine
11. Sister Rosetta Tharpe – Peace In The Valley
12. Mary Johnson Davis – Ain't That Good News
13. Marie Knight – Walk With Me
14. Clara Ward – Just One Moment
15. Clara Ward – The Last Mile Of The Way
16. Marion Williams – Come Out The Corner
17. Marion Williams – Nobody Knows, Nobody Cares
18. Marion Williams – Prayer Changes Things
19. Marion Williams – Shall These Cheeks Go Dry
20. Marion Williams – Feel Like My Time Ain't Long
21. Marion Williams – There's A Man
22. Goldia Haynes – This Old World
23. Cora Martin – Didn't It Rain
24. Cora Martin – There's A Place
25. Frances Steadman – Hark The Voice
26. Jessie Mae Renfro – I Must Tell Jesus
27. Bessie Folk – I'll Do What You Want Me To Do
28. Dorothy Love Coates – Trouble
29. Dorothy Love Coates – Elijah
30. Lucy Smith – O What A Time
31. Gladys Beamon Gregory – Tell The Angels
Код:
Exact Audio Copy V1.3 from 2. September 2016
EAC extraction logfile from 5. November 2017, 16:29
Various Artists / The Great Gospel Women
Used drive  : PBDS    CD-ROM DH-48N1S   Adapter: 1  ID: 0
Read mode               : Secure
Utilize accurate stream : Yes
Defeat audio cache      : Yes
Make use of C2 pointers : No
Read offset correction                      : 6
Overread into Lead-In and Lead-Out          : No
Fill up missing offset samples with silence : Yes
Delete leading and trailing silent blocks   : No
Null samples used in CRC calculations       : Yes
Used interface                              : Native Win32 interface for Win NT & 2000
Gap handling                                : Appended to previous track
Used output format              : User Defined Encoder
Selected bitrate                : 768 kBit/s
Quality                         : High
Add ID3 tag                     : No
Command line compressor         : C:\Program Files (x86)\FLAC\win64\flac.exe
Additional command line options : -8 -V -T "ARTIST=%artist%" -T "TITLE=%title%" -T "ALBUM=%albumtitle%" -T "DATE=%year%" -T "TRACKNUMBER=%tracknr%" -T "GENRE=%genre%" -T "PERFORMER=%albuminterpret%" -T "COMPOSER=%composer%" %haslyrics%--tag-from-file=LYRICS="%lyricsfile%"%haslyrics% -T "ALBUMARTIST=%albumartist%" -T "DISCNUMBER=%cdnumber%" -T "TOTALDISCS=%totalcds%" -T "TOTALTRACKS=%numtracks%" -T "COMMENT=%comment%" %source% -o %dest%
TOC of the extracted CD
     Track |   Start  |  Length  | Start sector | End sector
    ---------------------------------------------------------
        1  |  0:00.00 |  2:10.57 |         0    |     9806
        2  |  2:10.57 |  2:51.50 |      9807    |    22681
        3  |  5:02.32 |  2:52.68 |     22682    |    35649
        4  |  7:55.25 |  2:34.67 |     35650    |    47266
        5  | 10:30.17 |  2:41.38 |     47267    |    59379
        6  | 13:11.55 |  2:56.70 |     59380    |    72649
        7  | 16:08.50 |  2:34.05 |     72650    |    84204
        8  | 18:42.55 |  2:29.40 |     84205    |    95419
        9  | 21:12.20 |  2:52.00 |     95420    |   108319
       10  | 24:04.20 |  2:43.42 |    108320    |   120586
       11  | 26:47.62 |  2:41.23 |    120587    |   132684
       12  | 29:29.10 |  2:26.25 |    132685    |   143659
       13  | 31:55.35 |  2:13.22 |    143660    |   153656
       14  | 34:08.57 |  2:03.65 |    153657    |   162946
       15  | 36:12.47 |  1:56.30 |    162947    |   171676
       16  | 38:09.02 |  2:45.05 |    171677    |   184056
       17  | 40:54.07 |  3:05.43 |    184057    |   197974
       18  | 43:59.50 |  2:05.52 |    197975    |   207401
       19  | 46:05.27 |  1:51.18 |    207402    |   215744
       20  | 47:56.45 |  2:28.57 |    215745    |   226901
       21  | 50:25.27 |  2:20.68 |    226902    |   237469
       22  | 52:46.20 |  2:14.37 |    237470    |   247556
       23  | 55:00.57 |  2:57.50 |    247557    |   260881
       24  | 57:58.32 |  1:37.55 |    260882    |   268211
       25  | 59:36.12 |  2:28.05 |    268212    |   279316
       26  | 62:04.17 |  2:53.13 |    279317    |   292304
       27  | 64:57.30 |  2:28.25 |    292305    |   303429
       28  | 67:25.55 |  2:50.37 |    303430    |   316216
       29  | 70:16.17 |  2:25.43 |    316217    |   327134
       30  | 72:41.60 |  1:21.60 |    327135    |   333269
       31  | 74:03.45 |  2:19.32 |    333270    |   343726
Track  1
     Filename C:\EACRips\01 - Mahalia Jackson - Just A Closer Walk With Thee.wav
     Pre-gap length  0:00:02.00
     Peak level 100.0 %
     Extraction speed 3.6 X
     Track quality 100.0 %
     Test CRC 92F0F442
     Copy CRC 92F0F442
     Accurately ripped (confidence 3)  [A79D41D7]  (AR v2)
     Copy OK
Track  2
     Filename C:\EACRips\02 - Mahalia Jackson - These Are They.wav
     Pre-gap length  0:00:00.22
     Peak level 100.0 %
     Extraction speed 3.5 X
     Track quality 99.9 %
     Test CRC 8E343009
     Copy CRC 8E343009
     Accurately ripped (confidence 3)  [070CEB81]  (AR v2)
     Copy OK
Track  3
     Filename C:\EACRips\03 - Mahalia Jackson - Just As I Am.wav
     Pre-gap length  0:00:00.69
     Peak level 100.0 %
     Extraction speed 4.8 X
     Track quality 100.0 %
     Test CRC E6319973
     Copy CRC E6319973
     Accurately ripped (confidence 3)  [D9B3DA49]  (AR v2)
     Copy OK
Track  4
     Filename C:\EACRips\04 - Mahalia Jackson - Dig A Little Deeper.wav
     Pre-gap length  0:00:00.66
     Peak level 100.0 %
     Extraction speed 4.9 X
     Track quality 100.0 %
     Test CRC 574D93B4
     Copy CRC 574D93B4
     Accurately ripped (confidence 3)  [2D262A49]  (AR v2)
     Copy OK
Track  5
     Filename C:\EACRips\05 - Mahalia Jackson - Just Over The Hill.wav
     Pre-gap length  0:00:00.69
     Peak level 100.0 %
     Extraction speed 5.1 X
     Track quality 100.0 %
     Test CRC 4770C197
     Copy CRC 4770C197
     Accurately ripped (confidence 3)  [0BB245A8]  (AR v2)
     Copy OK
Track  6
     Filename C:\EACRips\06 - Mahalia Jackson - Just Keep Still.wav
     Pre-gap length  0:00:00.70
     Peak level 64.8 %
     Extraction speed 4.5 X
     Track quality 99.9 %
     Test CRC F9C0776D
     Copy CRC F9C0776D
     Accurately ripped (confidence 3)  [872BD8CA]  (AR v2)
     Copy OK
Track  7
     Filename C:\EACRips\07 - Willie Mae Ford Smith - What Manner Of Man Is This.wav
     Pre-gap length  0:00:00.70
     Peak level 100.0 %
     Extraction speed 5.4 X
     Track quality 100.0 %
     Test CRC A424D236
     Copy CRC A424D236
     Accurately ripped (confidence 3)  [339B0888]  (AR v2)
     Copy OK
Track  8
     Filename C:\EACRips\08 - Roberta Martin - What A Friend.wav
     Pre-gap length  0:00:00.70
     Peak level 73.4 %
     Extraction speed 5.8 X
     Track quality 100.0 %
     Test CRC D8674D49
     Copy CRC D8674D49
     Accurately ripped (confidence 3)  [E994AC9C]  (AR v2)
     Copy OK
Track  9
     Filename C:\EACRips\09 - Sister Rosetta Tharpe - I Looked Down The Line.wav
     Pre-gap length  0:00:00.73
     Peak level 100.0 %
     Extraction speed 4.9 X
     Track quality 99.9 %
     Test CRC 1D22C165
     Copy CRC 1D22C165
     Accurately ripped (confidence 3)  [D8D7EFCB]  (AR v2)
     Copy OK
Track 10
     Filename C:\EACRips\10 - Sister Rosetta Tharpe - Nobody's Fault But Mine.wav
     Peak level 100.0 %
     Extraction speed 6.1 X
     Track quality 100.0 %
     Test CRC 6880889C
     Copy CRC 6880889C
     Accurately ripped (confidence 3)  [69B3FE50]  (AR v2)
     Copy OK
Track 11
     Filename C:\EACRips\11 - Sister Rosetta Tharpe - Peace In The Valley.wav
     Pre-gap length  0:00:00.01
     Peak level 100.0 %
     Extraction speed 4.6 X
     Track quality 99.9 %
     Test CRC 13B37A00
     Copy CRC 13B37A00
     Accurately ripped (confidence 3)  [3E4DBEA4]  (AR v2)
     Copy OK
Track 12
     Filename C:\EACRips\12 - Mary Johnson Davis - Ain't That Good News.wav
     Pre-gap length  0:00:00.77
     Peak level 100.0 %
     Extraction speed 5.8 X
     Track quality 100.0 %
     Test CRC 9E843682
     Copy CRC 9E843682
     Accurately ripped (confidence 3)  [77FA4419]  (AR v2)
     Copy OK
Track 13
     Filename C:\EACRips\13 - Marie Knight - Walk With Me.wav
     Pre-gap length  0:00:00.84
     Peak level 100.0 %
     Extraction speed 5.8 X
     Track quality 100.0 %
     Test CRC DB0EEB86
     Copy CRC DB0EEB86
     Accurately ripped (confidence 3)  [6177BB34]  (AR v2)
     Copy OK
Track 14
     Filename C:\EACRips\14 - Clara Ward - Just One Moment.wav
     Pre-gap length  0:00:00.69
     Peak level 100.0 %
     Extraction speed 5.8 X
     Track quality 100.0 %
     Test CRC CE26E8AF
     Copy CRC CE26E8AF
     Accurately ripped (confidence 3)  [9AB269BE]  (AR v2)
     Copy OK
Track 15
     Filename C:\EACRips\15 - Clara Ward - The Last Mile Of The Way.wav
     Pre-gap length  0:00:00.66
     Peak level 100.0 %
     Extraction speed 6.2 X
     Track quality 100.0 %
     Test CRC BD355B23
     Copy CRC BD355B23
     Accurately ripped (confidence 3)  [E82A6BDF]  (AR v2)
     Copy OK
Track 16
     Filename C:\EACRips\16 - Marion Williams - Come Out Of The Corner.wav
     Pre-gap length  0:00:00.66
     Peak level 100.0 %
     Extraction speed 6.8 X
     Track quality 100.0 %
     Test CRC 2DB19A49
     Copy CRC 2DB19A49
     Accurately ripped (confidence 3)  [B9386D8E]  (AR v2)
     Copy OK
Track 17
     Filename C:\EACRips\17 - Marion Williams - Nobody Knows, Nobody Cares.wav
     Pre-gap length  0:00:00.69
     Peak level 99.9 %
     Extraction speed 5.8 X
     Track quality 99.9 %
     Test CRC 9B079180
     Copy CRC 9B079180
     Accurately ripped (confidence 3)  [8CC484A6]  (AR v2)
     Copy OK
Track 18
     Filename C:\EACRips\18 - Marion Williams - Prayer Changes Things.wav
     Pre-gap length  0:00:00.66
     Peak level 100.0 %
     Extraction speed 6.3 X
     Track quality 100.0 %
     Test CRC 8CB11F60
     Copy CRC 8CB11F60
     Accurately ripped (confidence 3)  [B189CF35]  (AR v2)
     Copy OK
Track 19
     Filename C:\EACRips\19 - Marion Williams - Shall These Cheeks Grow Dry.wav
     Pre-gap length  0:00:00.69
     Peak level 100.0 %
     Extraction speed 5.1 X
     Track quality 99.9 %
     Test CRC 9B95AA77
     Copy CRC 9B95AA77
     Accurately ripped (confidence 3)  [FDDAF683]  (AR v2)
     Copy OK
Track 20
     Filename C:\EACRips\20 - Marion Williams - Feel Like My Time Ain't Long.wav
     Pre-gap length  0:00:00.70
     Peak level 100.0 %
     Extraction speed 5.8 X
     Track quality 100.0 %
     Test CRC 3EB093BA
     Copy CRC 3EB093BA
     Accurately ripped (confidence 3)  [E9AFD760]  (AR v2)
     Copy OK
Track 21
     Filename C:\EACRips\21 - Marion Williams - There's A Man.wav
     Pre-gap length  0:00:00.69
     Peak level 100.0 %
     Extraction speed 6.6 X
     Track quality 100.0 %
     Test CRC C37A83FF
     Copy CRC C37A83FF
     Accurately ripped (confidence 3)  [2BFB49BC]  (AR v2)
     Copy OK
Track 22
     Filename C:\EACRips\22 - Goldia Haynes - This Old World.wav
     Pre-gap length  0:00:00.70
     Peak level 88.2 %
     Extraction speed 6.1 X
     Track quality 100.0 %
     Test CRC 3137F755
     Copy CRC 3137F755
     Accurately ripped (confidence 3)  [31A7CF62]  (AR v2)
     Copy OK
Track 23
     Filename C:\EACRips\23 - Cora Martin - Didn't It Rain.wav
     Pre-gap length  0:00:00.66
     Peak level 83.5 %
     Extraction speed 8.2 X
     Track quality 100.0 %
     Test CRC CC5788D5
     Copy CRC CC5788D5
     Accurately ripped (confidence 3)  [32D380B6]  (AR v2)
     Copy OK
Track 24
     Filename C:\EACRips\24 - Cora Martin - There's A Place.wav
     Pre-gap length  0:00:00.62
     Peak level 96.4 %
     Extraction speed 6.1 X
     Track quality 100.0 %
     Test CRC FBB5B946
     Copy CRC FBB5B946
     Accurately ripped (confidence 3)  [06380CA6]  (AR v2)
     Copy OK
Track 25
     Filename C:\EACRips\25 - Frances Steadman - Hark The Voice.wav
     Pre-gap length  0:00:00.62
     Peak level 98.8 %
     Extraction speed 6.3 X
     Track quality 99.9 %
     Test CRC F4D87DB2
     Copy CRC F4D87DB2
     Accurately ripped (confidence 3)  [92FDAA8F]  (AR v2)
     Copy OK
Track 26
     Filename C:\EACRips\26 - Jessie Mae Renfro - I Must Tell Jesus.wav
     Pre-gap length  0:00:00.66
     Peak level 100.0 %
     Extraction speed 8.4 X
     Track quality 100.0 %
     Test CRC 8033140B
     Copy CRC 8033140B
     Accurately ripped (confidence 3)  [3E726316]  (AR v2)
     Copy OK
Track 27
     Filename C:\EACRips\27 - Bessie Folk - I'll Do What You Want Me To Do.wav
     Pre-gap length  0:00:00.70
     Peak level 100.0 %
     Extraction speed 8.4 X
     Track quality 100.0 %
     Test CRC 74183610
     Copy CRC 74183610
     Accurately ripped (confidence 3)  [1E10AC1A]  (AR v2)
     Copy OK
Track 28
     Filename C:\EACRips\28 - Dorothy Love Coates - Trouble.wav
     Pre-gap length  0:00:00.73
     Peak level 98.8 %
     Extraction speed 8.8 X
     Track quality 100.0 %
     Test CRC FEC838A4
     Copy CRC FEC838A4
     Accurately ripped (confidence 3)  [BA5C6414]  (AR v2)
     Copy OK
Track 29
     Filename C:\EACRips\29 - Dorothy Love Coates - Elijah.wav
     Pre-gap length  0:00:00.62
     Peak level 100.0 %
     Extraction speed 8.6 X
     Track quality 100.0 %
     Test CRC 63B2ABA4
     Copy CRC 63B2ABA4
     Accurately ripped (confidence 3)  [9483C2F8]  (AR v2)
     Copy OK
Track 30
     Filename C:\EACRips\30 - Lucy Smith - O What A Time.wav
     Pre-gap length  0:00:00.26
     Peak level 96.1 %
     Extraction speed 7.3 X
     Track quality 100.0 %
     Test CRC 5FE9C327
     Copy CRC 5FE9C327
     Accurately ripped (confidence 3)  [54B9243A]  (AR v2)
     Copy OK
Track 31
     Filename C:\EACRips\31 - Gladys Beamon Gregory - Tell The Angels.wav
     Pre-gap length  0:00:00.70
     Peak level 89.1 %
     Extraction speed 6.7 X
     Track quality 99.9 %
     Test CRC 92669DBD
     Copy CRC 92669DBD
     Accurately ripped (confidence 3)  [8B39CBE9]  (AR v2)
     Copy OK
All tracks accurately ripped
No errors occurred
End of status report
---- CUETools DB Plugin V2.1.6
[CTDB TOCID: xPNcY8mGj0DBTYFpcKejjzA6CG8-] found
Submit result: xPNcY8mGj0DBTYFpcKejjzA6CG8- has been submitted
Track | CTDB Status
  1   | (3/3) Accurately ripped
  2   | (0/3) No match
  3   | (3/3) Accurately ripped
  4   | (3/3) Accurately ripped
  5   | (3/3) Accurately ripped
  6   | (3/3) Accurately ripped
  7   | (3/3) Accurately ripped
  8   | (3/3) Accurately ripped
  9   | (3/3) Accurately ripped
 10   | (3/3) Accurately ripped
 11   | (3/3) Accurately ripped
 12   | (3/3) Accurately ripped
 13   | (3/3) Accurately ripped
 14   | (3/3) Accurately ripped
 15   | (3/3) Accurately ripped
 16   | (3/3) Accurately ripped
 17   | (3/3) Accurately ripped
 18   | (3/3) Accurately ripped
 19   | (3/3) Accurately ripped
 20   | (3/3) Accurately ripped
 21   | (3/3) Accurately ripped
 22   | (3/3) Accurately ripped
 23   | (3/3) Accurately ripped
 24   | (3/3) Accurately ripped
 25   | (3/3) Accurately ripped
 26   | (3/3) Accurately ripped
 27   | (2/3) Accurately ripped
 28   | (3/3) Accurately ripped
 29   | (3/3) Accurately ripped
 30   | (3/3) Accurately ripped
 31   | (0/3) No match
==== Log checksum 7AA04FED0EC98514E252DF5991291C7A70D2788B148AE0EBFEA878A6B2EF3BE7 ====
Код:
REM GENRE Gospel
REM DATE 1993
REM DISCID D111E71F
REM COMMENT "ExactAudioCopy v1.3"
CATALOG 0000000000000
PERFORMER "Various Artists"
TITLE "The Great Gospel Women"
REM COMPOSER ""
FILE "01 - Mahalia Jackson - Just A Closer Walk With Thee.wav" WAVE
  TRACK 01 AUDIO
    TITLE "Just A Closer Walk With Thee"
    PERFORMER "Mahalia Jackson"
    REM COMPOSER ""
    INDEX 01 00:00:00
  TRACK 02 AUDIO
    TITLE "These Are They"
    PERFORMER "Mahalia Jackson"
    REM COMPOSER ""
    INDEX 00 02:10:40
FILE "02 - Mahalia Jackson - These Are They.wav" WAVE
    INDEX 01 00:00:00
  TRACK 03 AUDIO
    TITLE "Just As I Am"
    PERFORMER "Mahalia Jackson"
    REM COMPOSER ""
    INDEX 00 02:50:73
FILE "03 - Mahalia Jackson - Just As I Am.wav" WAVE
    INDEX 01 00:00:00
  TRACK 04 AUDIO
    TITLE "Dig A Little Deeper"
    PERFORMER "Mahalia Jackson"
    REM COMPOSER ""
    INDEX 00 02:52:18
FILE "04 - Mahalia Jackson - Dig A Little Deeper.wav" WAVE
    INDEX 01 00:00:00
  TRACK 05 AUDIO
    TITLE "Just Over The Hill"
    PERFORMER "Mahalia Jackson"
    REM COMPOSER ""
    INDEX 00 02:34:15
FILE "05 - Mahalia Jackson - Just Over The Hill.wav" WAVE
    INDEX 01 00:00:00
  TRACK 06 AUDIO
    TITLE "Just Keep Still"
    PERFORMER "Mahalia Jackson"
    REM COMPOSER ""
    INDEX 00 02:40:60
FILE "06 - Mahalia Jackson - Just Keep Still.wav" WAVE
    INDEX 01 00:00:00
  TRACK 07 AUDIO
    TITLE "What Manner Of Man Is This"
    PERFORMER "Willie Mae Ford Smith"
    REM COMPOSER ""
    INDEX 00 02:56:17
FILE "07 - Willie Mae Ford Smith - What Manner Of Man Is This.wav" WAVE
    INDEX 01 00:00:00
  TRACK 08 AUDIO
    TITLE "What A Friend"
    PERFORMER "Roberta Martin"
    REM COMPOSER ""
    INDEX 00 02:33:27
FILE "08 - Roberta Martin - What A Friend.wav" WAVE
    INDEX 01 00:00:00
  TRACK 09 AUDIO
    TITLE "I Looked Down The Line"
    PERFORMER "Sister Rosetta Tharpe"
    REM COMPOSER ""
    INDEX 00 02:28:60
FILE "09 - Sister Rosetta Tharpe - I Looked Down The Line.wav" WAVE
    INDEX 01 00:00:00
FILE "10 - Sister Rosetta Tharpe - Nobody's Fault But Mine.wav" WAVE
  TRACK 10 AUDIO
    TITLE "Nobody's Fault But Mine"
    PERFORMER "Sister Rosetta Tharpe"
    REM COMPOSER ""
    INDEX 01 00:00:00
  TRACK 11 AUDIO
    TITLE "Peace In The Valley"
    PERFORMER "Sister Rosetta Tharpe"
    REM COMPOSER ""
    INDEX 00 02:43:41
FILE "11 - Sister Rosetta Tharpe - Peace In The Valley.wav" WAVE
    INDEX 01 00:00:00
  TRACK 12 AUDIO
    TITLE "Ain't That Good News"
    PERFORMER "Mary Johnson Davis"
    REM COMPOSER ""
    INDEX 00 02:40:40
FILE "12 - Mary Johnson Davis - Ain't That Good News.wav" WAVE
    INDEX 01 00:00:00
  TRACK 13 AUDIO
    TITLE "Walk With Me"
    PERFORMER "Marie Knight"
    REM COMPOSER ""
    INDEX 00 02:25:37
FILE "13 - Marie Knight - Walk With Me.wav" WAVE
    INDEX 01 00:00:00
  TRACK 14 AUDIO
    TITLE "Just One Moment"
    PERFORMER "Clara Ward"
    REM COMPOSER ""
    INDEX 00 02:12:45
FILE "14 - Clara Ward - Just One Moment.wav" WAVE
    INDEX 01 00:00:00
  TRACK 15 AUDIO
    TITLE "The Last Mile Of The Way"
    PERFORMER "Clara Ward"
    REM COMPOSER ""
    INDEX 00 02:03:15
FILE "15 - Clara Ward - The Last Mile Of The Way.wav" WAVE
    INDEX 01 00:00:00
  TRACK 16 AUDIO
    TITLE "Come Out Of The Corner"
    PERFORMER "Marion Williams"
    REM COMPOSER ""
    INDEX 00 01:55:55
FILE "16 - Marion Williams - Come Out Of The Corner.wav" WAVE
    INDEX 01 00:00:00
  TRACK 17 AUDIO
    TITLE "Nobody Knows, Nobody Cares"
    PERFORMER "Marion Williams"
    REM COMPOSER ""
    INDEX 00 02:44:28
FILE "17 - Marion Williams - Nobody Knows, Nobody Cares.wav" WAVE
    INDEX 01 00:00:00
  TRACK 18 AUDIO
    TITLE "Prayer Changes Things"
    PERFORMER "Marion Williams"
    REM COMPOSER ""
    INDEX 00 03:04:68
FILE "18 - Marion Williams - Prayer Changes Things.wav" WAVE
    INDEX 01 00:00:00
  TRACK 19 AUDIO
    TITLE "Shall These Cheeks Grow Dry"
    PERFORMER "Marion Williams"
    REM COMPOSER ""
    INDEX 00 02:05:00
FILE "19 - Marion Williams - Shall These Cheeks Grow Dry.wav" WAVE
    INDEX 01 00:00:00
  TRACK 20 AUDIO
    TITLE "Feel Like My Time Ain't Long"
    PERFORMER "Marion Williams"
    REM COMPOSER ""
    INDEX 00 01:50:40
FILE "20 - Marion Williams - Feel Like My Time Ain't Long.wav" WAVE
    INDEX 01 00:00:00
  TRACK 21 AUDIO
    TITLE "There's A Man"
    PERFORMER "Marion Williams"
    REM COMPOSER ""
    INDEX 00 02:28:05
FILE "21 - Marion Williams - There's A Man.wav" WAVE
    INDEX 01 00:00:00
  TRACK 22 AUDIO
    TITLE "This Old World"
    PERFORMER "Goldia Haynes"
    REM COMPOSER ""
    INDEX 00 02:20:15
FILE "22 - Goldia Haynes - This Old World.wav" WAVE
    INDEX 01 00:00:00
  TRACK 23 AUDIO
    TITLE "Didn't It Rain"
    PERFORMER "Cora Martin"
    REM COMPOSER ""
    INDEX 00 02:13:62
FILE "23 - Cora Martin - Didn't It Rain.wav" WAVE
    INDEX 01 00:00:00
  TRACK 24 AUDIO
    TITLE "There's A Place"
    PERFORMER "Cora Martin"
    REM COMPOSER ""
    INDEX 00 02:57:03
FILE "24 - Cora Martin - There's A Place.wav" WAVE
    INDEX 01 00:00:00
  TRACK 25 AUDIO
    TITLE "Hark The Voice"
    PERFORMER "Frances Steadman"
    REM COMPOSER ""
    INDEX 00 01:37:08
FILE "25 - Frances Steadman - Hark The Voice.wav" WAVE
    INDEX 01 00:00:00
  TRACK 26 AUDIO
    TITLE "I Must Tell Jesus"
    PERFORMER "Jessie Mae Renfro"
    REM COMPOSER ""
    INDEX 00 02:27:30
FILE "26 - Jessie Mae Renfro - I Must Tell Jesus.wav" WAVE
    INDEX 01 00:00:00
  TRACK 27 AUDIO
    TITLE "I'll Do What You Want Me To Do"
    PERFORMER "Bessie Folk"
    REM COMPOSER ""
    INDEX 00 02:52:35
FILE "27 - Bessie Folk - I'll Do What You Want Me To Do.wav" WAVE
    INDEX 01 00:00:00
  TRACK 28 AUDIO
    TITLE "Trouble"
    PERFORMER "Dorothy Love Coates"
    REM COMPOSER ""
    INDEX 00 02:27:45
FILE "28 - Dorothy Love Coates - Trouble.wav" WAVE
    INDEX 01 00:00:00
  TRACK 29 AUDIO
    TITLE "Elijah"
    PERFORMER "Dorothy Love Coates"
    REM COMPOSER ""
    INDEX 00 02:49:65
FILE "29 - Dorothy Love Coates - Elijah.wav" WAVE
    INDEX 01 00:00:00
  TRACK 30 AUDIO
    TITLE "O What A Time"
    PERFORMER "Lucy Smith"
    REM COMPOSER ""
    INDEX 00 02:25:23
FILE "30 - Lucy Smith - O What A Time.wav" WAVE
    INDEX 01 00:00:00
  TRACK 31 AUDIO
    TITLE "Tell The Angels"
    PERFORMER "Gladys Beamon Gregory"
    REM COMPOSER ""
    INDEX 00 01:21:07
FILE "31 - Gladys Beamon Gregory - Tell The Angels.wav" WAVE
    INDEX 01 00:00:00
Правила, инструкции, FAQ!!!
Торрент  Добавлен [11 окт 2020, 15:18] Скачать торрент Магнет ссылка
Скачать торрент
[ Размер 17.69 КБ / Просмотров 9 ]

Статус
Проверен 
 
Размер  373.35 МБ
Приватный: Нет (DHT включён)
.torrent скачан  1
 


     Отправить личное сообщение
   
Страница 1 из 1
Показать сообщения за:  Поле сортировки  
Начать новую тему Ответить на тему


Сейчас этот форум просматривают: нет зарегистрированных пользователей и гости: 0


Вы не можете начинать темы
Вы не можете отвечать на сообщения
Вы не можете редактировать свои сообщения
Вы не можете удалять свои сообщения
Вы не можете добавлять вложения

Перейти:  
cron