Начать новую тему Ответить на тему
Статистика раздачи
Размер: 674.58 МБ | Добавлен: 26 мар 2019, 20:33 | Скачали: 1
Сидеров: 2  [0 байт/сек]    Личеров: 0  [0 байт/сек]
Пред. тема | След. тема 

Автор
Сообщение

СообщениеДобавлено: 26 мар 2019, 20:33 

Ответить с цитатой 

Cliff Richard - Now You See Me... Now You Don't
Жанр: Gospel, Pop/Rock
Страна-производитель диска: UK
Год выхода альбома: 1982, August
Год издания диска: 2002, July, 2
Издатель (лейбл): EMI
Номер по каталогу: 7243 5 38371 2 9 (EAN: 0724353837129)
Страна исполнителя: UK
Аудио кодек: APE (*.ape)
Тип рипа: image+.cue
Битрейт аудио: lossless
Продолжительность: 00:50:57
Источник (релизер): лично сама
Tracklist:
01. "The Only Way Out" [03:24]
(recorded 4-15 January 1982)
02. "First Date" [03:35]
(recorded 29 March-5 April 1982)
03. "Thief In The Night" [03:55]
(recorded 4-15 January 1982)
04. "Where Do We Go From Here" [02:58]
(recorded 4-15 January 1982)
05. "Son Of Thunder" [04:00]
(recorded 9-11 September 1981)
06. "Little Town" [04:08]
(recorded 9-11 September 1981)
07. "It Has To Be You, It Has To Be Me" [04:21]
(recorded 4-15 January 1982)
08. "The Water Is Wide" [03:51]
(recorded 21-22 September 1981)
09. "Now You See Me, Now You Don't" [03:02]
(recorded 29 March-5 April 1982)
10. "Be In My Heart" [04:38]
(recorded 29 March-5 April 1982)
11. "Discovering" [04:49]
(recorded 4-15 January 1982)
Bonus Tracks:
12. "Under The Influence" [02:50]
(recorded 4-15 January 1982)
13. "Love And A Helping Hand" [03:07]
(recorded June 1982)
14. "You, Me And Jesus" [02:19]
(recorded 4-15 January 1982)
Доп. информация: Задумывая работу над данным альбомом, Клифф Ричард решил объединить в себе казалось бы 2 несовместимые вещи - рок и госпел. Со времени выхода последнего госпел альбома исполнителя ("Small Corners") прошло 4 года, в период которых Клифф успел выпустить 2 студийных альбома - "I'm No Hero" (1980) и "Wired For Sound" (1981), стихией которых была поп музыка, во всех её проявлениях. Сейчас же, думая о новом альбоме, Клифф желал придать этому материалу более тяжёлое, роковое звучание, чтобы несколько уйти от танцевальных мелодик. Сессии записи "Now You See Me... Now You Don't" начались 9 сентября 1981 года, а уже в апреле 1982 года, альбом был записан полностью. Первый сингл "The Only Way Out/Under The Influence", выпущенный в преддверии выхода альбома в августе, впервые попал в чарт UK 17 июля 1982 года, где за 9 недель сумел подняться до 10-ой строчки. Сам альбом попал в чарты 4 сентября 1982 года и за 14 недель добрался до максимальной позиции под #4, получив от BPI статус Золотого. Тогда же, в сентябре был выпущен второй сингл - "Where Do We Go From Here/Discovering". В чарт синглов UK он попал 25 сентября. Его результаты были хуже, чем у предшественника: за 3 недели сингл сумел добраться лишь до #60. Последний сингл, выпущенный с альбома включал в себя целых 3 трека - "Little Town/Love And A Helping Hand/You, Me And Jesus". Данный сингл попал в чарт UK 4 декабря 1982 года.
Код:
Exact Audio Copy V0.99 prebeta 4 from 23. January 2008
EAC extraction logfile from 2. November 2010, 23:36
Cliff Richard / Now You See Me... Now You Don't (Remastered Edition With Bonus Tracks)
Used drive  : ATAPI   DVD DW 8X16X8X16   Adapter: 0  ID: 2
Read mode               : Secure
Utilize accurate stream : Yes
Defeat audio cache      : Yes
Make use of C2 pointers : No
Read offset correction                      : 618
Overread into Lead-In and Lead-Out          : No
Fill up missing offset samples with silence : Yes
Delete leading and trailing silent blocks   : No
Null samples used in CRC calculations       : Yes
Used interface                              : Native Win32 interface for Win NT & 2000
Used output format : Internal WAV Routines
Sample format      : 44.100 Hz; 16 Bit; Stereo
TOC of the extracted CD
     Track |   Start  |  Length  | Start sector | End sector
    ---------------------------------------------------------
        1  |  0:00.00 |  3:24.46 |         0    |    15345
        2  |  3:24.46 |  3:35.71 |     15346    |    31541
        3  |  7:00.42 |  3:55.73 |     31542    |    49239
        4  | 10:56.40 |  2:58.50 |     49240    |    62639
        5  | 13:55.15 |  4:00.17 |     62640    |    80656
        6  | 17:55.32 |  4:08.49 |     80657    |    99305
        7  | 22:04.06 |  4:21.58 |     99306    |   118938
        8  | 26:25.64 |  3:51.63 |    118939    |   136326
        9  | 30:17.52 |  3:02.34 |    136327    |   150010
       10  | 33:20.11 |  4:38.21 |    150011    |   170881
       11  | 37:58.32 |  4:49.74 |    170882    |   192630
       12  | 42:48.31 |  2:50.29 |    192631    |   205409
       13  | 45:38.60 |  3:07.58 |    205410    |   219492
       14  | 48:46.43 |  2:19.36 |    219493    |   229953
Range status and errors
Selected range
     Filename C:\BlondStyle\Now You See Me... Now You Don't.wav
     Peak level 98.8 %
     Range quality 100.0 %
     Test CRC FCEBAAFB
     Copy CRC FCEBAAFB
     Copy OK
No errors occurred
AccurateRip summary
Track  1  accurately ripped (confidence 6)  [E161BEA2]
Track  2  accurately ripped (confidence 5)  [639E6325]
Track  3  accurately ripped (confidence 4)  [2351D7F0]
Track  4  accurately ripped (confidence 6)  [F95FAFBA]
Track  5  not present in database
Track  6  accurately ripped (confidence 5)  [B745A38C]
Track  7  accurately ripped (confidence 6)  [FA5D534F]
Track  8  accurately ripped (confidence 3)  [C33B063A]
Track  9  accurately ripped (confidence 4)  [99228CBA]
Track 10  accurately ripped (confidence 2)  [9A248073]
Track 11  accurately ripped (confidence 3)  [4B1852E8]
Track 12  accurately ripped (confidence 5)  [45C77677]
Track 13  accurately ripped (confidence 5)  [74DD254C]
Track 14  accurately ripped (confidence 2)  [7F43FD92]
13 track(s) accurately ripped
 1 track(s) not present in the AccurateRip database
Some tracks could not be verified as accurate
End of status report
Рип фирменного диска из моей коллекции, сканы обложек и диска (600 dpi PNG) включены в раздачу.
Код:
-----------------------------------------------
 Statistics for:    Now You See Me... Now You Don't.wav
 Number of Samples: 135212952
-----------------------------------------------
                  left              right
 Peak value:     -0.10 dB   ---    -0.10 dB
 Avg RMS:        -9.62 dB   ---    -9.55 dB
 DR channel:      7.33 dB   ---     7.14 dB
-----------------------------------------------
 Official DR value:  DR7
===============================================
Код:
[Disc ID: 001ae44a-01200a10-ba0bfa0e]
Track [ CRC    ] Status
 01 [e161bea2] (06/06) Accurately ripped as in pressing(s) #1
 02 [639e6325] (05/05) Accurately ripped as in pressing(s) #1
 03 [2351d7f0] (04/04) Accurately ripped as in pressing(s) #1
 04 [f95fafba] (06/06) Accurately ripped as in pressing(s) #1
 05 [718de06b] (00/00) No matches
 06 [b745a38c] (05/05) Accurately ripped as in pressing(s) #1
 07 [fa5d534f] (06/06) Accurately ripped as in pressing(s) #1
 08 [c33b063a] (03/03) Accurately ripped as in pressing(s) #1
 09 [99228cba] (04/04) Accurately ripped as in pressing(s) #1
 10 [9a248073] (02/02) Accurately ripped as in pressing(s) #1
 11 [4b1852e8] (03/03) Accurately ripped as in pressing(s) #1
 12 [45c77677] (05/05) Accurately ripped as in pressing(s) #1
 13 [74dd254c] (05/05) Accurately ripped as in pressing(s) #1
 14 [7f43fd92] (02/02) Accurately ripped as in pressing(s) #1
Правила, инструкции, FAQ!!!
Торрент  Добавлен [26 мар 2019, 20:33] Скачать торрент Магнет ссылка
Скачать торрент
[ Размер 14.96 КБ / Просмотров 5 ]

Статус
Проверен 
 
Размер  674.58 МБ
Приватный: Нет (DHT включён)
.torrent скачан  1
 


     Отправить личное сообщение
   
Страница 1 из 1
Показать сообщения за:  Поле сортировки  
Начать новую тему Ответить на тему


Сейчас этот форум просматривают: нет зарегистрированных пользователей и гости: 0


Вы не можете начинать темы
Вы не можете отвечать на сообщения
Вы не можете редактировать свои сообщения
Вы не можете удалять свои сообщения
Вы не можете добавлять вложения

Перейти:  
cron