Начать новую тему Ответить на тему
Статистика раздачи
Размер: 227.12 МБ | Добавлен: 18 авг 2020, 12:54 | Скачали: 0
Сидеров: 1  [0 байт/сек]    Личеров: 0  [0 байт/сек]
Пред. тема | След. тема 

Автор
Сообщение

СообщениеДобавлено: 18 авг 2020, 12:54 

Ответить с цитатой 

Lauren Bousfield ~ 2020 ~ Palimpsest

#777.Brock Bousfield [real name]: 1981 ~ USA (Oakland / CA)
Жанры: Glitch Pop ~ Glitch ~ Breakcore
Издатель: Deathbomb Arc (USA)
Номер по каталогу: DBA 243
Источник: redacted.ch
Кодек: FLAC (*.flac)
Битрейт: lossless
Тип рипа: tracks
Носитель: web
.
Треклист [00:31:32]:
01. If We Save Just One Child It Will All Be Worth It (02:37)
02. Adraft (02:12)
03. A Big Box Store Mouthed to the Shape of How Fun It Is Before It Disappears (01:40)
04. Clean Strategic Narratives With Relatable Messaging Murder Them Violently Make Their Children Watch (03:21)
05. Another World Is Possible - Presented by US Bank (01:42)
06. August Reaching (01:34)
07. Administrative Violence (01:58)
08. Birds Falling Out of the Sky (03:02)
09. Futurelessness (02:21)
10. Foster Care Kid Running Away Again (02:00)
11. Crawling Into a Fireplace Cackling (02:34)
12. A Joke Poorly Told (04:01)
13. Palimpsest (02:34)

Код:
-----------------------
DON'T MODIFY THIS FILE
-----------------------
PERFORMER: auCDtect Task Manager, ver. 1.6.0 RC1 build 1.6.0.1
Copyright (c) 2008-2010 y-soft. All rights reserved
ANALYZER: auCDtect: CD records authenticity detector, version 0.8.2
Copyright (c) 2004 Oleg Berngardt. All rights reserved.
Copyright (c) 2004 Alexander Djourik. All rights reserved.
FILE: 13. Palimpsest.flac
  Size: 17083388 Hash: D449E424D4B75A8946AEE9180242B87D Accuracy: -m0
  Conclusion: CDDA 100%
  Signature: AAD641AA2DF4166FAA6399AEE5961F077EEF19BA
FILE: 12. A Joke Poorly Told.flac
  Size: 25131309 Hash: D8F47FD4C1F4F6F85942D47540167D07 Accuracy: -m0
  Conclusion: CDDA 100%
  Signature: 09B93FF53F312E5F12E1FE89FE7F789700A95513
FILE: 11. Crawling Into a Fireplace Cackling.flac
  Size: 19728559 Hash: 049D8E72068ED735B80F9486D6CF9AC1 Accuracy: -m0
  Conclusion: CDDA 100%
  Signature: 6ACFE604F4C90F6B252C107C3C44B0122FE4FC26
FILE: 10. Foster Care Kid Running Away Again.flac
  Size: 14052156 Hash: 24819FB3C3F4D35082B613364025F0D6 Accuracy: -m0
  Conclusion: CDDA 100%
  Signature: DB1C19210257C57F65D04600A7510E6406EC5F07
FILE: 09. Futurelessness.flac
  Size: 19336183 Hash: 5BA3DBB3EAAF3E77BF47F281BAF8D2DF Accuracy: -m0
  Conclusion: CDDA 100%
  Signature: A9221A7B13EC874F7F8B065E003BFE5DE82D13B1
FILE: 08. Birds Falling Out of the Sky.flac
  Size: 23347802 Hash: 691A26C45EE4B43A7FA2F4731C8DD7B5 Accuracy: -m0
  Conclusion: CDDA 99%
  Signature: 46E6CF02689B4B9A823C104AC07AD6A9723C0109
FILE: 07. Administrative Violence.flac
  Size: 14754825 Hash: D20613704AE3389A30C9CE85B8CB9025 Accuracy: -m0
  Conclusion: CDDA 100%
  Signature: 140D838C87B6AB81FDE5C107B505562872F0CBC4
FILE: 06. August Reaching.flac
  Size: 11394577 Hash: C993B30ABC9E4947A0DBC7A109A707AD Accuracy: -m0
  Conclusion: CDDA 100%
  Signature: 16F2CC47E4354741DDC257E8C08572E42051C35C
FILE: 05. Another World Is Possible - Presented by US Bank.flac
  Size: 12479049 Hash: 84B7C8A2F5A59ECB3095B2EE60BC4B1B Accuracy: -m0
  Conclusion: CDDA 100%
  Signature: 5C8A4FA013230903403C1DE877B61F3C8173BAD8
FILE: 04. Clean Strategic Narratives With Relatable Messaging Murder Them Violently Make Their Children Watch.flac
  Size: 26530665 Hash: A67A677CB22F8AE8E5EBDA0B5C417941 Accuracy: -m0
  Conclusion: CDDA 100%
  Signature: 02A7425FFE94CE9EAFE7AD7EC8F832A4DC7FFF99
FILE: 03. A Big Box Store Mouthed to the Shape of How Fun It Is Before It Disappears.flac
  Size: 12592761 Hash: EC53C0A4EECD300C5DAF5B1C3B0B6F4B Accuracy: -m0
  Conclusion: CDDA 100%
  Signature: 0281C255053DF1C343FF7FF9F674C424E6B8EA29
FILE: 02. Adraft.flac
  Size: 17088999 Hash: 4435BCBACF76B454F904320B80E500E8 Accuracy: -m0
  Conclusion: CDDA 99%
  Signature: FD4C914770734817F09E713F78CD7FE805542E8F
FILE: 01. If We Save Just One Child It Will All Be Worth It.flac
  Size: 20620945 Hash: 3BE0F2F1B28E36107E51E5A5B85A9977 Accuracy: -m0
  Conclusion: CDDA 100%
  Signature: A81DC9AE5628EF11F239DB2B8694FE373A0346AE
Код:
foobar2000 1.3.9 / Dynamic Range Meter 1.1.1
log date: 2020-08-12 12:40:42
--------------------------------------------------------------------------------
Analyzed: Lauren Bousfield / Palimpsest
--------------------------------------------------------------------------------
DR         Peak         RMS     Duration Track
--------------------------------------------------------------------------------
DR7       -0.50 dB    -9.61 dB      2:37 01-If We Save Just One Child It Will All Be Worth It
DR4       -0.50 dB    -6.22 dB      2:12 02-Adraft
DR6       -0.50 dB    -8.19 dB      1:40 03-A Big Box Store Mouthed to the Shape of How Fun It Is Before It Disappears
DR7       -0.50 dB    -9.27 dB      3:21 04-Clean Strategic Narratives With Relatable Messaging Murder Them Violently Make Their Children Watch
DR6       -0.50 dB    -8.05 dB      1:41 05-Another World Is Possible - Presented by US Bank
DR7       -0.50 dB    -9.36 dB      1:34 06-August Reaching
DR7       -0.50 dB    -8.37 dB      1:57 07-Administrative Violence
DR5       -0.50 dB    -6.35 dB      3:02 08-Birds Falling Out of the Sky
DR5       -0.50 dB    -7.43 dB      2:21 09-Futurelessness
DR8       -0.50 dB    -9.78 dB      2:00 10-Foster Care Kid Running Away Again
DR8       -0.50 dB    -9.68 dB      2:34 11-Crawling Into a Fireplace Cackling
DR6       -0.50 dB    -8.30 dB      4:00 12-A Joke Poorly Told
DR7       -0.50 dB    -9.04 dB      2:33 13-Palimpsest
--------------------------------------------------------------------------------
Number of tracks:  13
Official DR value: DR6
Samplerate:        44100 Hz
Channels:          2
Bits per sample:   16
Bitrate:           887 kbps
Codec:             FLAC
================================================================================

Правила, инструкции, FAQ!!!
Торрент  Добавлен [18 авг 2020, 12:54] Скачать торрент Магнет ссылка
Скачать торрент
[ Размер 19.28 КБ / Просмотров 2 ]

Статус
Проверен 
 
Размер  227.12 МБ
Приватный: Нет (DHT включён)
.torrent скачан  0
 


     Отправить личное сообщение
   
Страница 1 из 1
Показать сообщения за:  Поле сортировки  
Начать новую тему Ответить на тему


Сейчас этот форум просматривают: нет зарегистрированных пользователей и гости: 0


Вы не можете начинать темы
Вы не можете отвечать на сообщения
Вы не можете редактировать свои сообщения
Вы не можете удалять свои сообщения
Вы не можете добавлять вложения

Перейти:  
cron