Начать новую тему Ответить на тему
Статистика раздачи
Размер: 391.61 МБ | Добавлен: 26 мар 2019, 20:02 | Скачали: 1
Сидеров: 1  [0 байт/сек]    Личеров: 0  [0 байт/сек]
Пред. тема | След. тема 

Автор
Сообщение

СообщениеДобавлено: 26 мар 2019, 20:02 

Ответить с цитатой 

Cinema Bizarre - Final Attraction
http://ipicture.ru/
Жанр: Glam Rock
Год выпуска диска: 2007
Страна: Germany
Производитель диска: Russia
Аудио кодек: APE
Тип рипа: image+.cue
Битрейт аудио: lossless
Продолжительность: 00:51:47
Трэклист:
01. Lovesongs (They Kill Me)
02. How Does It Feel
03. Silent Scream
04. Get Off
05. Forever or Never
06. Escape to the Stars
07. After the Rain
08. She Waits For Me
09. I Don't Believe
10. The Way We Are
11. Dysfunctional Family
12. Heavensent
13. Angel in Disguise
14. The Silent Place
Отчет EAC:
Exact Audio Copy V0.99 prebeta 4 from 23. January 2008
Отчёт EAC об извлечении, выполненном 7. июля 2008, 14:02
Cinema Bizarre / Final Attraction
Дисковод: _NEC DVD_RW ND-3520A Adapter: 1 ID: 0
Режим чтения : Достоверность
Использование точного потока : Да
Отключение кэша аудио : Да
Использование указателей C2 : Нет
Коррекция смещения при чтении : 48
Способность читать области Lead-in и Lead-out : Нет
Заполнение пропущенных сэмплов тишиной : Да
Удаление блоков с тишиной в начале и конце : Нет
При вычислениях CRC использовались нулевые сэмплы : Да
Интерфейс : Установленный внешний ASPI-интерфейс
Выходной формат : Внутренние WAV-операции
Формат сэмплов : 44.100 Гц; 16 бит; стерео
TOC извлечённого CD
Трек | Старт | Длительность | Начальный сектор | Конечный сектор
---------------------------------------------------------------------
1 | 0:00.00 | 3:44.68 | 0 | 16867
2 | 3:44.68 | 3:47.62 | 16868 | 33954
3 | 7:32.55 | 3:58.12 | 33955 | 51816
4 | 11:30.67 | 3:14.34 | 51817 | 66400
5 | 14:45.26 | 3:20.05 | 66401 | 81405
6 | 18:05.31 | 3:49.71 | 81406 | 98651
7 | 21:55.27 | 3:37.03 | 98652 | 114929
8 | 25:32.30 | 3:14.18 | 114930 | 129497
9 | 28:46.48 | 3:13.13 | 129498 | 143985
10 | 31:59.61 | 3:56.24 | 143986 | 161709
11 | 35:56.10 | 3:52.60 | 161710 | 179169
12 | 39:48.70 | 4:09.39 | 179170 | 197883
13 | 43:58.34 | 3:53.46 | 197884 | 215404
14 | 47:52.05 | 3:55.31 | 215405 | 233060
Характеристики диапазона извлечения и сообщения об ошибках
Выбранный диапазон
Имя файла C:\Documents and Settings\Admin\Мои документы\Downloads\2007 - Final Attraction [APE]\Cinema Bizarre - Final Attraction.wav
Пиковый уровень 99.7 %
Качество диапазона 99.9 %
CRC копии CC596666
Копирование... OK
Ошибок не произошло
Конец отчёта
Правила, инструкции, FAQ!!!
Торрент  Добавлен [26 мар 2019, 20:02] Скачать торрент Магнет ссылка
Скачать торрент
[ Размер 16.2 КБ / Просмотров 15 ]

Статус
Проверен 
 
Размер  391.61 МБ
Приватный: Нет (DHT включён)
.torrent скачан  1
 


     Отправить личное сообщение
   
Страница 1 из 1
Показать сообщения за:  Поле сортировки  
Начать новую тему Ответить на тему


Сейчас этот форум просматривают: нет зарегистрированных пользователей и гости: 0


Вы не можете начинать темы
Вы не можете отвечать на сообщения
Вы не можете редактировать свои сообщения
Вы не можете удалять свои сообщения
Вы не можете добавлять вложения

Перейти:  
cron