Начать новую тему Ответить на тему
Статистика раздачи
Размер: 14.34 ГБ | Добавлен: 05 июн 2020, 22:51 | Скачали: 0
Сидеров: 0  [0 байт/сек]    Личеров: 0  [0 байт/сек]
Пред. тема | След. тема 

Автор
Сообщение

СообщениеДобавлено: 05 июн 2020, 22:51 

Ответить с цитатой 

Giuseppe Verdi - Simon Boccanegra / Джузеппе Верди - Симон Бокканегра
Год выпуска: 2002
Лейбл: Arthaus Musik
Страна-производитель: Austria
Жанр: Opera
Продолжительность: 02:16:20
Язык: Итальянский
Перевод: нет
Субтитры: Englisch, French, German, Spanish, Italian
Режиссер: Peter Stein
Дирижер: Daniele Gatti
Исполнители:
Simon Boccanegra - Thomas Hampson
Jacopo Fiesco - Ferruccio Furlanetto
Paolo Albiani - Boaz Daniel
Pietro - Dan Paul Dumitrescu
Amelia Grimaldi - Cristina Gallardo-Domas
Gabriele Adorno - Miroslav Dvorský
Chorus and Orchestra of the Vienna State Opera
Треклист:
Giuseppe Verdi (1813-1901) Simon Boccanegra
Опера Джузеппе Верди в трех действиях с прологом, либретто Франческо Мария Пьяве, основанное на драме Антонио Гарсия Гутьерреса.
Первая постановка: Венеция, театр "Ла Фениче", 12 марта 1857 года.
Live from the Vienna State Opera, 2002
Действие происходит в Генуе с 1339 по 1363 годы.
Бывший корсар Симон любит Марию, дочь дожа Генуи Фиеско. У них родилась дочь. Однако Фиеско против связи Марии с простолюдином. Вскоре Симона избирают дожем Генуи вместо Фиеско. Но его преследуют несчастья. Дочь похищена, Мария умирает. Только любовь народа согревает его душу.
Прошло много лет. Дочь Симона Амелия воспитывается в семье аристократа Гримальди, у которого скрывается Фиеско, готовящий заговор против Симона. Амелию любит Габриэль Адорно. Но Гримальди хочет отдать ее за секретаря дожа Паоло. Фиеско под видом патера Андреа готов помочь Габриэлю, но требует соучастия в заговоре. Появляется Бокканегра. В разговоре с Амелией он понимает, что перед ним дочь. Девушка умоляет его не принуждать ее к браку с Паоло. Симон соглашается. Возмущенный отказом Паоло решает украсть Амелию с помощью друга Пьетро. Однако на помощь девушке приходит Габриэль. В схватке он убивает одного из приближенных Паоло. Его вместе с "патером" арестовывают и приводят к дожу. Габриэль бросается на Симона с ножом, думая, что это он велел похитить возлюбленную. Но Амелия, встав между ними, защищает отца. Симон приказывает Паоло разобраться с этим делом.
Паоло хочет захватить власть в городе. Он подсыпает яд в бокал Симону. Затем вызывает арестованных. Пытаясь отвлечь от себя подозрение в заговоре, Паоло предлагает "патеру" убить дожа. Фиеско гневно отвергает гнусное предложение. Габриэль также не хочет участвовать в этом. Но Паоло уверяет его, что Амелия - любовница дожа. И Габриэль уступает. Он прячется в кабинете Симона за ширму. Когда все уходят, в кабинете появляется Амелия в домашнем платье. Подозрения Габриэля усиливаются. Заметив его, девушка вскрикивает. На гневные вопросы она отвечает, что любит дожа, но не успевает объяснить причины чувства, так как в комнату входит Симон. Габриэль вынужден спрятаться. Ему не слышен разговор Амелии с дожем, в котором девушка говорит отцу о своей любви к Габриэлю. Бокканегра показывает дочери документы, подготовленные Паоло. В них доказывается принадлежность Габриэля и "патера" к заговору. Амелия умоляет отца повременить с приговором. Бокканегра решает подождать до утра. Оставшись один, Симон выпивает бокал с отравленной водой и засыпает. Выйдя из укрытия, Габриэль подходит к спящему, чтобы убить его. Но почувствовавшая неладное и вовремя возвратившаяся Амелия вновь спасает отца от удара кинжалом. Она наконец-то может сказать возлюбленному, что Симон - ее отец. Бокканегра слышит разговор. Он все понял и простил Габриэля. Если тот не любит Геную, то может идти к заговорщикам. Потрясенный Габриэль клянется в верности правителю.
Парадный зал во дворце. Капитан стражи возвращает шпагу Фиеско. Он свободен. Мимо проводят под конвоем Паоло. Он проиграл и с ненавистью кричит, что отравленный Симон умрет раньше него. Появляются дож, Амелия с Габриэлем и придворные. Фиеско откидывает капюшон рясы. Симон узнает своего бывшего врага и обнимает. Затем, покачнувшись, садится в кресло. Взволнованный Фиеско сообщает, что Бокканегра отравлен секретарем. Симон чувствует, что умирает. Он благословляет дочь и Габриэля, который станет его преемником, заклиная их любить родной город. Амелия с плачем припадает к мертвому отцу.
Giuseppe Verdi’s 1857 opera, “Simon Boccanegra”, about the Genoese doge who in the 14th century strove for settlement and peace – an allegory for Italy’s modern battle for freedom -was unsuccessful. It was not until 24 years later that he was able to produce a new version together with his librettist, Arrigo Boito, who made the plot more appealing to the audience. But it is primarily in the music that Verdi now dares to pursue new avenues which although had already been established, are now to be consistently followed: arias and recitatives are replaced by a style of declamation that pervades the entire work. The orchestra too is ennobled from an accompanying ensemble to a commentarial one. In the production of the second version by Peter Stein, one of the biggest theatre directors of the 20th century, the production becomes a rediscovery of this opera. Claudio Abbado competently conducts the soloists and the choir and orchestra of the Maggio Musicale Fiorentino and yields an extraordinary sound.
Качество видео: SD Blu-ray 1080i
Формат/Контейнер: BDMV
Видео кодек: H.264
Аудио кодек: PCM
Видео : MPEG-4 AVC Video / 12014 kbps / 1080i / 29.970 fps / 16:9 / High Profile 4.1
Аудио : Italian / LPCM Audio / 2.0 / 48 kHz / 1536 kbps / 16-bit
Код:
Disc Title:     Simon Boccanegra
Disc Label:     Verdi - Simon Boccanegra 2002 1080i Bluray AVC PCM 2.0
Disc Size:      15,402,372,670 bytes
Protection:     AACS
BDInfo:         0.7.5.5
Notes:
BDINFO HOME:
  Cinema Squid (old)
    [url=http://www.cinemasquid.com/blu-ray/tools/bdinfo]http://www.cinemasquid.com/blu-ray/tools/bdinfo[/url]
  UniqProject GitHub (new)
   [url=https://github.com/UniqProject/BDInfo]https://github.com/UniqProject/BDInfo[/url]
INCLUDES FORUMS REPORT FOR:
  AVS Forum Blu-ray Audio and Video Specifications Thread
    [url=http://www.avsforum.com/avs-vb/showthread.php?t=1155731]http://www.avsforum.com/avs-vb/showthread.php?t=1155731[/url]
********************
PLAYLIST: 00006.MPLS
********************
<--- BEGIN FORUMS PASTE --->
Код:
Код:
                                                                                Total   Video
Title                                                           Codec   Length  Movie Size      Disc Size       Bitrate Bitrate Main Audio Track                          Secondary Audio Track
-----                                                           ------  ------- --------------  --------------  ------- ------- ------------------                        ---------------------
00006.MPLS                                                      AVC     2:16:19 14,898,451,776  15,402,372,670  14.57   12.01   LPCM 2.0 1536Kbps (48kHz/16-bit)

Код:
Код:
DISC INFO:
Disc Title:     Simon Boccanegra
Disc Label:     Verdi - Simon Boccanegra 2002 1080i Bluray AVC PCM 2.0
Disc Size:      15,402,372,670 bytes
Protection:     AACS
BDInfo:         0.7.5.5
PLAYLIST REPORT:
Name:                   00006.MPLS
Length:                 2:16:19.504 (h:m:s.ms)
Size:                   14,898,451,776 bytes
Total Bitrate:          14.57 Mbps
VIDEO:
Codec                   Bitrate             Description
-----                   -------             -----------
MPEG-4 AVC Video        12014 kbps          1080i / 29.970 fps / 16:9 / High Profile 4.1
AUDIO:
Codec                           Language        Bitrate         Description
-----                           --------        -------         -----------
LPCM Audio                      Italian         1536 kbps       2.0 / 48 kHz /  1536 kbps / 16-bit
SUBTITLES:
Codec                           Language        Bitrate         Description
-----                           --------        -------         -----------
Presentation Graphics           English         20.247 kbps
Presentation Graphics           German          23.646 kbps
Presentation Graphics           French          20.588 kbps
Presentation Graphics           Spanish         20.417 kbps
Presentation Graphics           Italian         17.812 kbps
FILES:
Name            Time In         Length          Size            Total Bitrate
----            -------         ------          ----            -------------
00004.M2TS      0:00:00.000     2:16:19.171     14,898,440,448  14,572
00006.M2TS      2:16:19.171     0:00:00.333     11,328          247
CHAPTERS:
Number          Time In         Length          Avg Video Rate  Max 1-Sec Rate  Max 1-Sec Time  Max 5-Sec Rate  Max 5-Sec Time  Max 10Sec Rate  Max 10Sec Time  Avg Frame Size  Max Frame Size  Max Frame Time
------          -------         ------          --------------  --------------  --------------  --------------  --------------  --------------  --------------  --------------  --------------  --------------
1               0:00:00.000     0:00:56.389     17,370 kbps     24,632 kbps     00:00:22.989    22,179 kbps     00:00:20.987    21,389 kbps     00:00:16.716    72,406 bytes    338,419 bytes   00:00:20.620
2               0:00:56.389     0:04:44.183     10,950 kbps     17,558 kbps     00:04:23.696    15,592 kbps     00:04:21.694    14,530 kbps     00:04:16.656    45,672 bytes    213,692 bytes   00:04:44.884
3               0:05:40.573     0:01:52.645     14,923 kbps     23,366 kbps     00:06:19.112    20,680 kbps     00:06:40.867    19,940 kbps     00:06:39.499    62,243 bytes    279,613 bytes   00:07:13.533
4               0:07:33.219     0:02:42.362     12,198 kbps     20,999 kbps     00:09:01.941    17,184 kbps     00:08:59.772    16,051 kbps     00:08:54.800    50,874 bytes    239,157 bytes   00:09:03.542
5               0:10:15.581     0:05:27.327     10,683 kbps     15,227 kbps     00:10:16.415    13,377 kbps     00:14:41.714    13,240 kbps     00:14:41.714    44,556 bytes    217,824 bytes   00:13:16.796
6               0:15:42.908     0:03:28.942     12,796 kbps     17,621 kbps     00:17:48.267    15,599 kbps     00:17:45.330    14,629 kbps     00:17:43.996    53,370 bytes    225,998 bytes   00:15:44.009
7               0:19:11.850     0:02:44.697     11,655 kbps     16,524 kbps     00:20:51.350    14,955 kbps     00:20:49.314    14,368 kbps     00:20:47.179    48,609 bytes    244,055 bytes   00:20:15.681
8               0:21:56.548     0:03:54.133     12,670 kbps     30,289 kbps     00:25:05.670    28,191 kbps     00:25:04.269    24,358 kbps     00:25:01.366    52,845 bytes    240,628 bytes   00:25:22.354
9               0:25:50.682     0:02:08.695     10,134 kbps     15,159 kbps     00:27:56.574    13,839 kbps     00:27:54.372    13,453 kbps     00:27:49.367    42,268 bytes    214,386 bytes   00:27:49.801
10              0:27:59.377     0:03:55.101     13,013 kbps     16,564 kbps     00:31:27.418    14,899 kbps     00:29:22.694    14,670 kbps     00:29:18.923    54,274 bytes    219,901 bytes   00:31:30.622
11              0:31:54.479     0:02:17.170     12,543 kbps     21,837 kbps     00:33:01.612    18,971 kbps     00:32:57.976    18,160 kbps     00:32:55.940    52,315 bytes    218,352 bytes   00:33:36.481
12              0:34:11.649     0:04:37.744     12,343 kbps     20,233 kbps     00:37:39.357    18,443 kbps     00:37:44.095    17,459 kbps     00:37:38.956    51,482 bytes    235,812 bytes   00:34:38.543
13              0:38:49.393     0:02:00.987     12,727 kbps     20,300 kbps     00:40:15.279    18,115 kbps     00:40:12.309    17,071 kbps     00:40:12.309    53,080 bytes    236,043 bytes   00:40:14.512
14              0:40:50.381     0:02:04.157     8,854 kbps      14,739 kbps     00:40:50.948    11,961 kbps     00:41:42.399    11,131 kbps     00:41:41.499    36,928 bytes    198,853 bytes   00:42:49.900
15              0:42:54.538     0:03:34.480     11,585 kbps     19,825 kbps     00:44:23.861    16,691 kbps     00:45:22.519    16,368 kbps     00:45:17.915    48,318 bytes    226,617 bytes   00:46:12.102
16              0:46:29.019     0:05:40.840     11,057 kbps     19,418 kbps     00:51:20.811    17,230 kbps     00:51:19.843    15,381 kbps     00:51:20.010    46,118 bytes    265,517 bytes   00:52:09.826
17              0:52:09.860     0:03:21.201     14,852 kbps     23,783 kbps     00:53:41.418    21,717 kbps     00:53:39.482    20,791 kbps     00:53:38.682    61,945 bytes    309,944 bytes   00:53:16.693
18              0:55:31.061     0:01:18.611     11,607 kbps     16,649 kbps     00:55:41.504    15,222 kbps     00:55:38.835    14,220 kbps     00:55:35.732    48,411 bytes    225,575 bytes   00:56:47.637
19              0:56:49.672     0:06:36.963     13,853 kbps     33,830 kbps     01:02:12.161    30,199 kbps     01:02:08.124    28,211 kbps     01:02:03.152    57,779 bytes    342,648 bytes   00:58:31.875
20              1:03:26.636     0:00:42.809     15,268 kbps     24,590 kbps     01:03:27.670    20,665 kbps     01:03:26.736    17,805 kbps     01:03:26.736    63,679 bytes    255,101 bytes   01:03:30.106
21              1:04:09.445     0:02:35.054     12,520 kbps     20,580 kbps     01:06:25.448    17,765 kbps     01:06:24.647    17,044 kbps     01:06:24.547    52,220 bytes    235,216 bytes   01:06:32.455
22              1:06:44.500     0:05:18.251     11,523 kbps     19,331 kbps     01:11:21.210    16,100 kbps     01:11:28.817    15,036 kbps     01:11:28.484    48,059 bytes    272,843 bytes   01:10:27.723
23              1:12:02.751     0:04:33.239     12,105 kbps     19,189 kbps     01:12:13.696    16,742 kbps     01:16:11.667    15,588 kbps     01:16:08.931    50,490 bytes    277,635 bytes   01:12:16.799
24              1:16:35.991     0:02:37.357     9,829 kbps      15,581 kbps     01:17:33.348    13,814 kbps     01:18:22.764    13,085 kbps     01:17:12.427    40,994 bytes    205,251 bytes   01:18:08.383
25              1:19:13.348     0:01:48.308     10,973 kbps     15,746 kbps     01:20:03.698    13,308 kbps     01:19:44.780    12,705 kbps     01:19:38.673    45,766 bytes    218,088 bytes   01:20:20.549
26              1:21:01.656     0:03:01.981     11,909 kbps     16,388 kbps     01:22:26.574    15,110 kbps     01:22:23.505    14,342 kbps     01:22:21.670    49,671 bytes    207,071 bytes   01:22:56.638
27              1:24:03.638     0:02:14.667     11,607 kbps     15,238 kbps     01:25:28.523    13,170 kbps     01:24:54.189    12,634 kbps     01:25:03.431    48,412 bytes    208,516 bytes   01:24:33.234
28              1:26:18.306     0:03:04.384     11,854 kbps     18,018 kbps     01:26:59.480    15,861 kbps     01:26:47.368    14,940 kbps     01:26:56.978    49,440 bytes    210,356 bytes   01:28:41.382
29              1:29:22.690     0:01:06.232     12,790 kbps     18,127 kbps     01:30:15.543    16,441 kbps     01:30:15.042    15,278 kbps     01:30:13.341    53,346 bytes    201,936 bytes   01:30:02.864
30              1:30:28.923     0:05:59.158     11,279 kbps     17,204 kbps     01:31:56.711    15,677 kbps     01:31:56.711    14,611 kbps     01:31:54.108    47,043 bytes    225,072 bytes   01:33:34.675
31              1:36:28.082     0:03:27.373     11,029 kbps     17,963 kbps     01:38:01.408    16,365 kbps     01:38:00.608    14,794 kbps     01:37:55.569    45,998 bytes    239,236 bytes   01:37:31.145
32              1:39:55.456     0:03:41.754     10,267 kbps     17,077 kbps     01:43:28.769    14,713 kbps     01:43:28.669    14,268 kbps     01:43:25.198    42,822 bytes    230,266 bytes   01:42:25.239
33              1:43:37.211     0:01:16.743     11,295 kbps     19,447 kbps     01:44:26.693    15,968 kbps     01:44:24.658    14,704 kbps     01:44:18.452    47,111 bytes    201,681 bytes   01:43:37.578
34              1:44:53.954     0:06:37.396     11,384 kbps     17,263 kbps     01:48:08.181    15,196 kbps     01:50:06.533    14,943 kbps     01:50:01.828    47,479 bytes    214,128 bytes   01:46:46.166
35              1:51:31.351     0:07:18.237     10,944 kbps     16,202 kbps     01:55:45.438    14,910 kbps     01:56:18.304    14,306 kbps     01:55:45.438    45,647 bytes    228,846 bytes   01:56:10.730
36              1:58:49.589     0:04:07.146     12,484 kbps     19,557 kbps     02:01:22.675    17,519 kbps     02:01:22.575    16,032 kbps     02:01:21.240    52,067 bytes    248,784 bytes   02:01:19.272
37              2:02:56.736     0:02:21.241     14,808 kbps     22,719 kbps     02:04:45.344    20,485 kbps     02:04:41.507    19,989 kbps     02:04:42.708    61,762 bytes    283,933 bytes   02:04:14.980
38              2:05:17.977     0:08:35.982     12,956 kbps     23,792 kbps     02:10:47.272    20,699 kbps     02:10:45.137    19,477 kbps     02:09:38.570    54,036 bytes    308,823 bytes   02:10:36.895
39              2:13:53.959     0:02:25.545     13,226 kbps     20,357 kbps     02:15:13.105    18,750 kbps     02:15:09.501    16,974 kbps     02:15:06.998    55,152 bytes    277,827 bytes   02:15:13.138
STREAM DIAGNOSTICS:
File            PID             Type            Codec           Language                Seconds                 Bitrate                 Bytes           Packets
----            ---             ----            -----           --------                --------------          --------------          -------------   -----
00004.M2TS      4113 (0x1011)   0x1B            AVC                                     8189.114                12,001                  12,284,377,860  66,908,630
00004.M2TS      4352 (0x1100)   0x80            LPCM            ita (Italian)           8189.114                1,541                   1,576,931,444   9,814,926
00004.M2TS      4608 (0x1200)   0x90            PGS             eng (English)           8189.114                20                      20,701,890      118,744
00004.M2TS      4609 (0x1201)   0x90            PGS             deu (German)            8189.114                24                      24,176,579      137,658
00004.M2TS      4610 (0x1202)   0x90            PGS             fra (French)            8189.114                21                      21,049,832      120,655
00004.M2TS      4611 (0x1203)   0x90            PGS             spa (Spanish)           8189.114                20                      20,875,795      119,716
00004.M2TS      4612 (0x1204)   0x90            PGS             ita (Italian)           8189.114                18                      18,211,887      105,226
00006.M2TS      4113 (0x1011)   0x1B            AVC                                     0.901                   145                     16,302          112

Код:
<---- END FORUMS PASTE ---->
QUICK SUMMARY:
Disc Title: Simon Boccanegra
Disc Label: Verdi - Simon Boccanegra 2002 1080i Bluray AVC PCM 2.0
Disc Size: 15,402,372,670 bytes
Protection: AACS
Playlist: 00006.MPLS
Size: 14,898,451,776 bytes
Length: 2:16:19.504
Total Bitrate: 14.57 Mbps
Video: MPEG-4 AVC Video / 12014 kbps / 1080i / 29.970 fps / 16:9 / High Profile 4.1
Audio: Italian / LPCM Audio / 2.0 / 48 kHz /  1536 kbps / 16-bit
Subtitle: English / 20.247 kbps
Subtitle: German / 23.646 kbps
Subtitle: French / 20.588 kbps
Subtitle: Spanish / 20.417 kbps
Subtitle: Italian / 17.812 kbps
********************
PLAYLIST: 00002.MPLS
********************
<--- BEGIN FORUMS PASTE --->
Код:
Код:
                                                                                Total   Video
Title                                                           Codec   Length  Movie Size      Disc Size       Bitrate Bitrate Main Audio Track                          Secondary Audio Track
-----                                                           ------  ------- --------------  --------------  ------- ------- ------------------                        ---------------------
00002.MPLS                                                      AVC     0:03:09 391,334,976     15,402,372,670  16.50   13.97   LPCM 2.0 1536Kbps (48kHz/16-bit)

Код:
Код:
DISC INFO:
Disc Title:     Simon Boccanegra
Disc Label:     Verdi - Simon Boccanegra 2002 1080i Bluray AVC PCM 2.0
Disc Size:      15,402,372,670 bytes
Protection:     AACS
BDInfo:         0.7.5.5
PLAYLIST REPORT:
Name:                   00002.MPLS
Length:                 0:03:09.756 (h:m:s.ms)
Size:                   391,334,976 bytes
Total Bitrate:          16.50 Mbps
VIDEO:
Codec                   Bitrate             Description
-----                   -------             -----------
MPEG-4 AVC Video        13970 kbps          1080i / 29.970 fps / 16:9 / High Profile 4.1
AUDIO:
Codec                           Language        Bitrate         Description
-----                           --------        -------         -----------
LPCM Audio                      Italian         1536 kbps       2.0 / 48 kHz /  1536 kbps / 16-bit
FILES:
Name            Time In         Length          Size            Total Bitrate
----            -------         ------          ----            -------------
00002.M2TS      0:00:00.000     0:03:09.422     391,323,648     16,527
00006.M2TS      0:03:09.422     0:00:00.333     11,328          247
CHAPTERS:
Number          Time In         Length          Avg Video Rate  Max 1-Sec Rate  Max 1-Sec Time  Max 5-Sec Rate  Max 5-Sec Time  Max 10Sec Rate  Max 10Sec Time  Avg Frame Size  Max Frame Size  Max Frame Time
------          -------         ------          --------------  --------------  --------------  --------------  --------------  --------------  --------------  --------------  --------------  --------------
1               0:00:00.000     0:03:09.756     13,972 kbps     22,349 kbps     00:01:56.349    20,793 kbps     00:01:48.341    20,497 kbps     00:01:48.141    58,265 bytes    358,802 bytes   00:00:20.520
STREAM DIAGNOSTICS:
File            PID             Type            Codec           Language                Seconds                 Bitrate                 Bytes           Packets
----            ---             ----            -----           --------                --------------          --------------          -------------   -----
00002.M2TS      4113 (0x1011)   0x1B            AVC                                     189.356                 14,001                  331,405,993     1,804,464
00002.M2TS      4352 (0x1100)   0x80            LPCM            ita (Italian)           189.356                 1,543                   36,521,140      227,310
00006.M2TS      4113 (0x1011)   0x1B            AVC                                     0.901                   145                     16,302          112

Код:
<---- END FORUMS PASTE ---->
QUICK SUMMARY:
Disc Title: Simon Boccanegra
Disc Label: Verdi - Simon Boccanegra 2002 1080i Bluray AVC PCM 2.0
Disc Size: 15,402,372,670 bytes
Protection: AACS
Playlist: 00002.MPLS
Size: 391,334,976 bytes
Length: 0:03:09.756
Total Bitrate: 16.50 Mbps
Video: MPEG-4 AVC Video / 13970 kbps / 1080i / 29.970 fps / 16:9 / High Profile 4.1
Audio: Italian / LPCM Audio / 2.0 / 48 kHz /  1536 kbps / 16-bit
********************
PLAYLIST: 00005.MPLS
********************
<--- BEGIN FORUMS PASTE --->
Код:
Код:
                                                                                Total   Video
Title                                                           Codec   Length  Movie Size      Disc Size       Bitrate Bitrate Main Audio Track                          Secondary Audio Track
-----                                                           ------  ------- --------------  --------------  ------- ------- ------------------                        ---------------------
00005.MPLS                                                      AVC     0:00:48 87,133,632      15,402,372,670  14.36   11.91   LPCM 2.0 1536Kbps (48kHz/16-bit)

Код:
Код:
DISC INFO:
Disc Title:     Simon Boccanegra
Disc Label:     Verdi - Simon Boccanegra 2002 1080i Bluray AVC PCM 2.0
Disc Size:      15,402,372,670 bytes
Protection:     AACS
BDInfo:         0.7.5.5
PLAYLIST REPORT:
Name:                   00005.MPLS
Length:                 0:00:48.548 (h:m:s.ms)
Size:                   87,133,632 bytes
Total Bitrate:          14.36 Mbps
VIDEO:
Codec                   Bitrate             Description
-----                   -------             -----------
MPEG-4 AVC Video        11909 kbps          1080i / 29.970 fps / 16:9 / High Profile 4.1
AUDIO:
Codec                           Language        Bitrate         Description
-----                           --------        -------         -----------
LPCM Audio                      Undetermined    1536 kbps       2.0 / 48 kHz /  1536 kbps / 16-bit
SUBTITLES:
Codec                           Language        Bitrate         Description
-----                           --------        -------         -----------
Presentation Graphics           English         0.005 kbps
Presentation Graphics           German          0.005 kbps
Presentation Graphics           French          0.005 kbps
Presentation Graphics           Spanish         0.005 kbps
Presentation Graphics           Italian         0.005 kbps
FILES:
Name            Time In         Length          Size            Total Bitrate
----            -------         ------          ----            -------------
00003.M2TS      0:00:00.000     0:00:48.548     87,133,632      14,348
CHAPTERS:
Number          Time In         Length          Avg Video Rate  Max 1-Sec Rate  Max 1-Sec Time  Max 5-Sec Rate  Max 5-Sec Time  Max 10Sec Rate  Max 10Sec Time  Avg Frame Size  Max Frame Size  Max Frame Time
------          -------         ------          --------------  --------------  --------------  --------------  --------------  --------------  --------------  --------------  --------------  --------------
1               0:00:00.000     0:00:48.548     11,917 kbps     18,771 kbps     00:00:03.136    15,524 kbps     00:00:01.534    14,120 kbps     00:00:00.200    49,739 bytes    364,661 bytes   00:00:47.981
STREAM DIAGNOSTICS:
File            PID             Type            Codec           Language                Seconds                 Bitrate                 Bytes           Packets
----            ---             ----            -----           --------                --------------          --------------          -------------   -----
00003.M2TS      4113 (0x1011)   0x1B            AVC                                     48.448                  12,001                  72,681,255      395,866
00003.M2TS      4352 (0x1100)   0x80            LPCM            und (Undetermined)      48.448                  1,546                   9,360,440       58,260
00003.M2TS      4608 (0x1200)   0x90            PGS             eng (English)           48.448                  1                       7,842           50
00003.M2TS      4609 (0x1201)   0x90            PGS             deu (German)            48.448                  1                       7,842           50
00003.M2TS      4610 (0x1202)   0x90            PGS             fra (French)            48.448                  1                       7,842           50
00003.M2TS      4611 (0x1203)   0x90            PGS             spa (Spanish)           48.448                  1                       7,842           50
00003.M2TS      4612 (0x1204)   0x90            PGS             ita (Italian)           48.448                  1                       7,842           50

Код:
<---- END FORUMS PASTE ---->
QUICK SUMMARY:
Disc Title: Simon Boccanegra
Disc Label: Verdi - Simon Boccanegra 2002 1080i Bluray AVC PCM 2.0
Disc Size: 15,402,372,670 bytes
Protection: AACS
Playlist: 00005.MPLS
Size: 87,133,632 bytes
Length: 0:00:48.548
Total Bitrate: 14.36 Mbps
Video: MPEG-4 AVC Video / 11909 kbps / 1080i / 29.970 fps / 16:9 / High Profile 4.1
Audio: Undetermined / LPCM Audio / 2.0 / 48 kHz /  1536 kbps / 16-bit
Subtitle: English / 0.005 kbps
Subtitle: German / 0.005 kbps
Subtitle: French / 0.005 kbps
Subtitle: Spanish / 0.005 kbps
Subtitle: Italian / 0.005 kbps
#777
Правила, инструкции, FAQ!!!
Торрент  Добавлен [05 июн 2020, 22:51] Скачать торрент Магнет ссылка
Скачать торрент
[ Размер 74.86 КБ / Просмотров 2 ]

Статус
Проверен 
 
Размер  14.34 ГБ
Приватный: Нет (DHT включён)
.torrent скачан  0
 


     Отправить личное сообщение
   
Страница 1 из 1
Показать сообщения за:  Поле сортировки  
Начать новую тему Ответить на тему


Сейчас этот форум просматривают: нет зарегистрированных пользователей и гости: 0


Вы не можете начинать темы
Вы не можете отвечать на сообщения
Вы не можете редактировать свои сообщения
Вы не можете удалять свои сообщения
Вы не можете добавлять вложения

Перейти:  
cron