Начать новую тему Ответить на тему
Статистика раздачи
Размер: 39.8 ГБ | Добавлен: 05 июн 2020, 23:04 | Скачали: 0
Сидеров: 0  [0 байт/сек]    Личеров: 0  [0 байт/сек]
Пред. тема | След. тема 

Автор
Сообщение

СообщениеДобавлено: 05 июн 2020, 23:04 

Ответить с цитатой 

Gioacchino Rossini: Il Barbiere di Siviglia

Год выпуска: 2011
Лейбл: Arthaus Musik
Страна-производитель: Великобритания
Жанр: Opera
Продолжительность: 02:49:31
Язык: Italian
Субтитры: English; French; German; Italian; Japanese; Korean; Spanish
Режиссер: Stefano Vizioli, Daniela Vismara
Дирижер: Andrea Battistoni
Исполнители: Dmitry Korchak (Il Conte d'Almaviva), Bruno Praticò (Bartolo), Ketevan Kemoklidze (Rosina), Luca Salsi (Figaro), Giovanni Furlanetto (Don Basilio), Gabriele Bolletta (Fiorello), Noris Borgogelli (Ambrogio), Natalia Roman (Berta), Parma Teatro Regio Chorus and Orchestra
Описание: In Parma, where audiences are considered the most discerning in all Italy, the benchmark for vocal artists is set traditionally high. Operagoers here are intimately familiar with the works of their favourites, from Rossini to Puccini, and know every tricky corner by heart. God forbid any singer who fails to accomplish the task without due seemliness Unsurprisingly, then, this performance attempts no directorial experiments. The main setting for this realistically inspired production both indoors and out is Rosinas house, which is converted as required into its constituent parts. One happily turns a blind eye to a (historically authentically dressed) protagonist occasionally being seconded to move a piece of stage scenery. Stage presence, vocal perfection and above all the audibly and visibly gleeful participation of all performers in the action are a more than adequate payoff for the intellectual flights of fancy of other interpretations. Our rewards are found on the one hand in the precise and sure-footed direction of Stefano Vizioli. All performers know exactly the role they are required to play and how best to carry it off. On the other hand, the singers on stage and instrumentalists in the pit seem to enter a new dimension as soon as the Rossini machine gets up to speed. The spirited orchestra plays under the magical baton of Andrea Battistoni, born in Verona in 1987 and appointed principal guest conductor at Parmas Teatro Regio in January 2011.
Качество видео: Blu-ray
Формат/Контейнер: BDMV
Видео кодек: AVC MPEG-4
Аудио кодек: DTS-HD MA | LPCM
Видео поток: MPEG-4 AVC Video / 23931 kbps / 1080i / 29.970 fps / 16:9 / High Profile 4.1
Аудио поток#1: Italian / LPCM Audio / 2.0 / 48 kHz / 2304 kbps / 24-bit
Аудио поток#2: Italian / DTS-HD Master Audio / 5.1 / 48 kHz / 3985 kbps / 24-bit (DTS Core: 5.1 / 48 kHz / 1509 kbps / 24-bit)


Код:
Disc Title:     BARBIERE
Disc Size:      42,738,557,575 bytes
Protection:     AACS
BD-Java:        No
BDInfo:         0.5.8
Notes:
BDINFO HOME:
  Cinema Squid
    [url=http://www.cinemasquid.com/blu-ray/tools/bdinfo]http://www.cinemasquid.com/blu-ray/tools/bdinfo[/url]
INCLUDES FORUMS REPORT FOR:
  AVS Forum Blu-ray Audio and Video Specifications Thread
    [url=http://www.avsforum.com/avs-vb/showthread.php?t=1155731]http://www.avsforum.com/avs-vb/showthread.php?t=1155731[/url]
********************
PLAYLIST: 00009.MPLS
********************
<--- BEGIN FORUMS PASTE --->
Код:
Код:
                                                                                Total   Video
Title                                                           Codec   Length  Movie Size      Disc Size       Bitrate Bitrate Main Audio Track                          Secondary Audio Track
-----                                                           ------  ------- --------------  --------------  ------- ------- ------------------                        ---------------------
00009.MPLS                                                      AVC     2:49:31 40,754,989,056  42,738,557,575  32.05   23.93   LPCM 2.0 2304Kbps (48kHz/24-bit)          DTS-HD Master 5.1 3985Kbps (48kHz/24-bit)

Код:
Код:
DISC INFO:
Disc Title:     BARBIERE
Disc Size:      42,738,557,575 bytes
Protection:     AACS
BD-Java:        No
BDInfo:         0.5.8
PLAYLIST REPORT:
Name:                   00009.MPLS
Length:                 2:49:31.528 (h:m:s.ms)
Size:                   40,754,989,056 bytes
Total Bitrate:          32.05 Mbps
VIDEO:
Codec                   Bitrate             Description
-----                   -------             -----------
MPEG-4 AVC Video        23931 kbps          1080i / 29.970 fps / 16:9 / High Profile 4.1
AUDIO:
Codec                           Language        Bitrate         Description
-----                           --------        -------         -----------
LPCM Audio                      Italian         2304 kbps       2.0 / 48 kHz / 2304 kbps / 24-bit
DTS-HD Master Audio             Italian         3985 kbps       5.1 / 48 kHz / 3985 kbps / 24-bit (DTS Core: 5.1 / 48 kHz / 1509 kbps / 24-bit)
SUBTITLES:
Codec                           Language        Bitrate         Description
-----                           --------        -------         -----------
Presentation Graphics           Italian         18.594 kbps
Presentation Graphics           English         19.266 kbps
Presentation Graphics           German          21.466 kbps
Presentation Graphics           French          20.068 kbps
Presentation Graphics           Spanish         19.053 kbps
Presentation Graphics           Japanese        19.450 kbps
Presentation Graphics           Korean          18.339 kbps
FILES:
Name            Time In         Length          Size            Total Bitrate
----            -------         ------          ----            -------------
00001.M2TS      0:00:00.000     2:49:17.147     40,753,864,704  32,099
00005.M2TS      2:49:17.147     0:00:14.047     1,112,064       633
00000.M2TS      2:49:31.194     0:00:00.333     12,288          295
CHAPTERS:
Number          Time In         Length          Avg Video Rate  Max 1-Sec Rate  Max 1-Sec Time  Max 5-Sec Rate  Max 5-Sec Time  Max 10Sec Rate  Max 10Sec Time  Avg Frame Size  Max Frame Size  Max Frame Time
------          -------         ------          --------------  --------------  --------------  --------------  --------------  --------------  --------------  --------------  --------------  --------------
1               0:00:00.000     0:00:31.231     10,866 kbps     28,227 kbps     00:00:25.425    24,316 kbps     00:00:24.624    21,684 kbps     00:00:21.221    45,271 bytes    267,399 bytes   00:00:24.758
2               0:00:31.231     0:07:24.076     21,282 kbps     28,399 kbps     00:07:22.275    26,230 kbps     00:02:01.154    25,915 kbps     00:01:57.750    88,764 bytes    412,316 bytes   00:07:47.533
3               0:07:55.308     0:04:07.413     22,402 kbps     33,659 kbps     00:11:54.680    29,287 kbps     00:11:52.945    27,847 kbps     00:11:52.712    93,437 bytes    685,246 bytes   00:11:47.006
4               0:12:02.722     0:03:58.137     24,168 kbps     36,028 kbps     00:14:37.943    33,323 kbps     00:14:34.740    30,567 kbps     00:14:31.904    100,800 bytes   440,332 bytes   00:14:25.331
5               0:16:00.859     0:01:10.403     26,663 kbps     37,001 kbps     00:16:56.682    31,676 kbps     00:16:52.745    30,541 kbps     00:16:14.773    111,206 bytes   395,803 bytes   00:16:44.403
6               0:17:11.263     0:01:55.682     23,719 kbps     35,271 kbps     00:17:20.639    31,652 kbps     00:17:20.072    30,455 kbps     00:17:20.072    98,928 bytes    545,447 bytes   00:18:59.271
7               0:19:06.945     0:01:06.032     25,228 kbps     33,564 kbps     00:19:19.858    29,735 kbps     00:20:07.973    27,646 kbps     00:20:02.968    105,223 bytes   407,598 bytes   00:19:42.981
8               0:20:12.978     0:05:15.281     21,671 kbps     29,986 kbps     00:20:37.402    26,505 kbps     00:21:54.880    25,449 kbps     00:22:41.193    90,388 bytes    447,668 bytes   00:23:40.452
9               0:25:28.260     0:02:31.251     22,703 kbps     34,890 kbps     00:25:59.424    30,202 kbps     00:25:57.789    27,941 kbps     00:25:32.063    94,693 bytes    455,204 bytes   00:27:46.531
10              0:27:59.511     0:02:03.389     20,972 kbps     29,884 kbps     00:28:43.354    25,869 kbps     00:28:39.350    24,280 kbps     00:29:12.417    87,469 bytes    499,627 bytes   00:28:49.160
11              0:30:02.901     0:02:54.007     22,727 kbps     34,511 kbps     00:32:35.820    31,036 kbps     00:32:34.452    29,987 kbps     00:32:35.820    94,790 bytes    573,207 bytes   00:30:55.153
12              0:32:56.908     0:03:22.535     21,889 kbps     33,187 kbps     00:33:56.768    28,021 kbps     00:33:53.865    26,823 kbps     00:35:25.256    91,294 bytes    521,819 bytes   00:34:26.798
13              0:36:19.443     0:01:07.600     21,696 kbps     29,551 kbps     00:36:39.830    26,687 kbps     00:36:36.961    25,309 kbps     00:36:31.589    90,489 bytes    387,409 bytes   00:36:58.115
14              0:37:27.044     0:08:03.850     22,452 kbps     34,955 kbps     00:44:45.382    30,574 kbps     00:44:42.746    27,829 kbps     00:44:37.708    93,645 bytes    450,569 bytes   00:40:35.833
15              0:45:30.894     0:01:16.743     22,603 kbps     32,681 kbps     00:46:35.559    29,766 kbps     00:45:48.779    27,692 kbps     00:45:43.907    94,275 bytes    343,019 bytes   00:46:44.334
16              0:46:47.638     0:05:37.437     25,892 kbps     35,925 kbps     00:50:48.612    33,035 kbps     00:50:47.778    31,648 kbps     00:50:42.773    107,989 bytes   420,754 bytes   00:51:15.038
17              0:52:25.075     0:01:25.118     27,211 kbps     33,882 kbps     00:52:50.867    31,683 kbps     00:53:20.397    30,231 kbps     00:53:16.693    113,492 bytes   404,542 bytes   00:52:55.405
18              0:53:50.193     0:03:26.839     24,207 kbps     36,178 kbps     00:54:34.804    31,413 kbps     00:55:48.945    30,593 kbps     00:54:28.898    100,963 bytes   603,556 bytes   00:55:30.527
19              0:57:17.033     0:05:00.166     23,140 kbps     33,015 kbps     01:00:08.237    31,028 kbps     01:00:01.831    30,722 kbps     00:59:59.228    96,512 bytes    494,918 bytes   01:01:56.846
20              1:02:17.200     0:03:16.529     24,849 kbps     34,172 kbps     01:05:14.143    30,400 kbps     01:05:13.342    28,626 kbps     01:05:10.907    103,640 bytes   434,913 bytes   01:02:23.039
21              1:05:33.729     0:05:10.810     24,858 kbps     34,878 kbps     01:06:55.144    32,481 kbps     01:07:09.158    31,593 kbps     01:07:08.157    103,677 bytes   540,405 bytes   01:06:06.028
22              1:10:44.540     0:02:01.387     24,776 kbps     33,222 kbps     01:11:48.437    29,245 kbps     01:11:46.735    27,742 kbps     01:11:41.730    103,339 bytes   401,230 bytes   01:11:35.291
23              1:12:45.928     0:06:36.996     24,602 kbps     37,912 kbps     01:16:10.332    33,340 kbps     01:16:10.232    30,152 kbps     01:14:34.269    102,612 bytes   749,847 bytes   01:15:32.961
24              1:19:22.924     0:01:21.981     26,906 kbps     37,804 kbps     01:20:26.354    33,154 kbps     01:20:25.654    31,900 kbps     01:20:06.668    112,220 bytes   375,650 bytes   01:20:22.951
25              1:20:44.906     0:08:43.322     25,370 kbps     42,360 kbps     01:27:25.707    33,395 kbps     01:27:09.791    30,428 kbps     01:25:01.830    105,815 bytes   630,579 bytes   01:28:45.320
26              1:29:28.229     0:03:54.734     26,631 kbps     37,031 kbps     01:31:13.267    32,335 kbps     01:31:45.433    30,529 kbps     01:32:41.622    111,073 bytes   700,281 bytes   01:31:12.667
27              1:33:22.964     0:02:57.443     23,304 kbps     34,297 kbps     01:35:21.782    28,842 kbps     01:35:20.981    28,065 kbps     01:35:17.111    97,196 bytes    784,604 bytes   01:35:44.605
28              1:36:20.407     0:05:36.669     25,768 kbps     41,775 kbps     01:36:24.578    34,147 kbps     01:36:23.778    32,283 kbps     01:36:34.789    107,475 bytes   626,868 bytes   01:41:38.992
29              1:41:57.077     0:01:29.355     21,389 kbps     28,851 kbps     01:42:14.928    26,136 kbps     01:42:11.592    23,732 kbps     01:42:07.087    89,209 bytes    499,354 bytes   01:41:57.878
30              1:43:26.433     0:03:06.252     23,963 kbps     34,691 kbps     01:45:43.170    32,641 kbps     01:45:42.502    30,168 kbps     01:45:39.633    99,946 bytes    451,221 bytes   01:44:16.550
31              1:46:32.686     0:03:56.269     26,469 kbps     36,990 kbps     01:50:17.310    34,318 kbps     01:50:15.241    32,360 kbps     01:50:14.140    110,396 bytes   601,497 bytes   01:49:42.909
32              1:50:28.955     0:05:32.131     24,023 kbps     34,386 kbps     01:53:11.584    31,754 kbps     01:53:08.014    31,251 kbps     01:53:03.009    100,195 bytes   528,377 bytes   01:53:44.551
33              1:56:01.087     0:00:48.248     23,527 kbps     34,829 kbps     01:56:36.923    31,789 kbps     01:56:36.656    27,991 kbps     01:56:31.651    98,126 bytes    390,022 bytes   01:56:30.216
34              1:56:49.335     0:01:05.999     25,647 kbps     35,186 kbps     01:57:49.562    33,579 kbps     01:57:48.728    31,366 kbps     01:57:45.324    106,969 bytes   428,587 bytes   01:56:56.776
35              1:57:55.334     0:03:39.185     24,877 kbps     34,681 kbps     01:57:55.868    31,893 kbps     02:00:24.817    29,243 kbps     02:01:20.773    103,759 bytes   641,666 bytes   01:59:01.100
36              2:01:34.520     0:04:12.218     24,750 kbps     38,054 kbps     02:05:26.085    34,177 kbps     02:02:12.124    32,708 kbps     02:02:07.853    103,228 bytes   462,891 bytes   02:03:45.518
37              2:05:46.739     0:01:49.109     25,211 kbps     33,427 kbps     02:06:56.008    29,592 kbps     02:06:53.772    28,517 kbps     02:06:26.045    105,152 bytes   523,044 bytes   02:06:09.828
38              2:07:35.848     0:04:29.068     22,810 kbps     34,303 kbps     02:09:01.366    31,193 kbps     02:09:00.365    28,476 kbps     02:09:44.209    95,136 bytes    449,804 bytes   02:09:58.056
39              2:12:04.917     0:01:16.209     24,520 kbps     30,459 kbps     02:13:04.910    28,534 kbps     02:13:04.910    28,054 kbps     02:13:02.107    102,268 bytes   546,863 bytes   02:12:31.176
40              2:13:21.126     0:03:31.844     24,176 kbps     31,970 kbps     02:15:43.301    29,602 kbps     02:15:42.167    27,924 kbps     02:13:51.757    100,835 bytes   547,964 bytes   02:13:51.857
41              2:16:52.971     0:02:37.757     23,729 kbps     29,041 kbps     02:18:49.688    27,005 kbps     02:18:48.086    26,444 kbps     02:18:43.081    98,971 bytes    366,625 bytes   02:17:26.037
42              2:19:30.729     0:03:08.454     20,842 kbps     26,043 kbps     02:21:37.755    24,154 kbps     02:22:34.178    23,389 kbps     02:22:29.173    86,929 bytes    430,421 bytes   02:21:40.191
43              2:22:39.183     0:01:41.868     22,157 kbps     32,129 kbps     02:23:38.242    30,055 kbps     02:23:38.276    28,808 kbps     02:23:33.037    92,413 bytes    448,176 bytes   02:24:09.173
44              2:24:21.052     0:04:52.458     23,385 kbps     34,576 kbps     02:26:43.795    31,157 kbps     02:26:42.727    29,007 kbps     02:26:59.610    97,537 bytes    443,699 bytes   02:28:15.786
45              2:29:13.511     0:01:30.223     25,715 kbps     35,454 kbps     02:29:51.849    31,490 kbps     02:29:54.418    29,825 kbps     02:29:49.413    107,251 bytes   402,831 bytes   02:29:51.949
46              2:30:43.734     0:03:03.850     24,330 kbps     42,796 kbps     02:33:40.978    33,032 kbps     02:33:40.044    29,836 kbps     02:33:37.575    101,475 bytes   410,166 bytes   02:31:18.702
47              2:33:47.585     0:08:24.437     24,089 kbps     41,510 kbps     02:38:09.146    35,820 kbps     02:38:56.894    33,222 kbps     02:38:55.893    100,471 bytes   472,212 bytes   02:34:10.507
48              2:42:12.022     0:00:37.137     25,080 kbps     31,783 kbps     02:42:17.427    28,938 kbps     02:42:14.658    26,750 kbps     02:42:32.743    104,604 bytes   304,285 bytes   02:42:19.229
49              2:42:49.159     0:02:32.385     26,720 kbps     40,260 kbps     02:42:53.930    36,130 kbps     02:42:50.093    34,549 kbps     02:42:49.259    111,446 bytes   714,873 bytes   02:43:04.508
50              2:45:21.544     0:03:55.602     25,769 kbps     42,992 kbps     02:45:26.950    34,181 kbps     02:45:24.547    29,675 kbps     02:45:24.714    107,479 bytes   627,517 bytes   02:45:27.150
51              2:49:17.147     0:00:14.381     516 kbps        1,474 kbps      02:49:22.519    985 kbps        02:49:18.314    686 kbps        02:49:17.147    2,158 bytes     23,543 bytes    02:49:20.150
STREAM DIAGNOSTICS:
File            PID             Type            Codec           Language                Seconds                 Bitrate                 Bytes           Packets
----            ---             ----            -----           --------                --------------          --------------          -------------   -----
00001.M2TS      4113 (0x1011)   0x1B            AVC                                     10157.047               23,965                  30,426,354,806  165,538,636
00001.M2TS      4352 (0x1100)   0x80            LPCM            ita (Italian)           10157.047               2,310                   2,933,374,812   16,251,384
00001.M2TS      4353 (0x1101)   0x86            DTS-HD MA       ita (Italian)           10157.047               3,991                   5,067,326,880   29,123,806
00001.M2TS      4608 (0x1200)   0x90            PGS             ita (Italian)           10157.047               19                      23,641,352      137,828
00001.M2TS      4609 (0x1201)   0x90            PGS             eng (English)           10157.047               19                      24,495,267      142,490
00001.M2TS      4610 (0x1202)   0x90            PGS             deu (German)            10157.047               21                      27,293,227      157,745
00001.M2TS      4611 (0x1203)   0x90            PGS             fra (French)            10157.047               20                      25,515,270      148,052
00001.M2TS      4612 (0x1204)   0x90            PGS             spa (Spanish)           10157.047               19                      24,224,914      141,053
00001.M2TS      4613 (0x1205)   0x90            PGS             jpn (Japanese)          10157.047               19                      24,729,200      142,324
00001.M2TS      4614 (0x1206)   0x90            PGS             kor (Korean)            10157.047               18                      23,317,374      136,116
00005.M2TS      4113 (0x1011)   0x1B            AVC                                     13.914                  532                     924,426         5,314
00000.M2TS      4113 (0x1011)   0x1B            AVC                                     0.200                   244                     6,107           41

Код:
<---- END FORUMS PASTE ---->
QUICK SUMMARY:
Disc Title: BARBIERE
Disc Size: 42,738,557,575 bytes
Protection: AACS
BD-Java: No
Playlist: 00009.MPLS
Size: 40,754,989,056 bytes
Length: 2:49:31.528
Total Bitrate: 32.05 Mbps
Video: MPEG-4 AVC Video / 23931 kbps / 1080i / 29.970 fps / 16:9 / High Profile 4.1
Audio: Italian / LPCM Audio / 2.0 / 48 kHz / 2304 kbps / 24-bit
Audio: Italian / DTS-HD Master Audio / 5.1 / 48 kHz / 3985 kbps / 24-bit (DTS Core: 5.1 / 48 kHz / 1509 kbps / 24-bit)
Subtitle: Italian / 18.594 kbps
Subtitle: English / 19.266 kbps
Subtitle: German / 21.466 kbps
Subtitle: French / 20.068 kbps
Subtitle: Spanish / 19.053 kbps
Subtitle: Japanese / 19.450 kbps
Subtitle: Korean / 18.339 kbps
********************
PLAYLIST: 00008.MPLS
********************
<--- BEGIN FORUMS PASTE --->
Код:
Код:
                                                                                Total   Video
Title                                                           Codec   Length  Movie Size      Disc Size       Bitrate Bitrate Main Audio Track                          Secondary Audio Track
-----                                                           ------  ------- --------------  --------------  ------- ------- ------------------                        ---------------------
00008.MPLS                                                      AVC     0:03:09 12,288          42,738,557,575  0.00    0.15    LPCM 2.0 2304Kbps (48kHz/24-bit)

Код:
Код:
DISC INFO:
Disc Title:     BARBIERE
Disc Size:      42,738,557,575 bytes
Protection:     AACS
BD-Java:        No
BDInfo:         0.5.8
PLAYLIST REPORT:
Name:                   00008.MPLS
Length:                 0:03:09.522 (h:m:s.ms)
Size:                   12,288 bytes
Total Bitrate:          0.00 Mbps
VIDEO:
Codec                   Bitrate             Description
-----                   -------             -----------
MPEG-4 AVC Video        146 kbps            1080i / 29.970 fps / 16:9 / High Profile 4.1
AUDIO:
Codec                           Language        Bitrate         Description
-----                           --------        -------         -----------
LPCM Audio                      Undetermined    2304 kbps       2.0 / 48 kHz / 2304 kbps / 24-bit
FILES:
Name            Time In         Length          Size            Total Bitrate
----            -------         ------          ----            -------------
00010.M2TS      0:00:00.000     0:03:09.188     0               0
00000.M2TS      0:03:09.188     0:00:00.333     12,288          295
CHAPTERS:
Number          Time In         Length          Avg Video Rate  Max 1-Sec Rate  Max 1-Sec Time  Max 5-Sec Rate  Max 5-Sec Time  Max 10Sec Rate  Max 10Sec Time  Avg Frame Size  Max Frame Size  Max Frame Time
------          -------         ------          --------------  --------------  --------------  --------------  --------------  --------------  --------------  --------------  --------------  --------------
1               0:00:00.000     0:03:09.522     0 kbps          0 kbps          00:00:00.000    0 kbps          00:00:00.000    0 kbps          00:00:00.000    611 bytes       2,437 bytes     00:03:09.188
STREAM DIAGNOSTICS:
File            PID             Type            Codec           Language                Seconds                 Bitrate                 Bytes           Packets
----            ---             ----            -----           --------                --------------          --------------          -------------   -----
00010.M2TS      4113 (0x1011)   0x1B            AVC                                     0                       0                       0               0
00010.M2TS      4352 (0x1100)   0x80            LPCM            und (Undetermined)      0                       0                       0               0
00000.M2TS      4113 (0x1011)   0x1B            AVC                                     0.200                   244                     6,107           41

Код:
<---- END FORUMS PASTE ---->
QUICK SUMMARY:
Disc Title: BARBIERE
Disc Size: 42,738,557,575 bytes
Protection: AACS
BD-Java: No
Playlist: 00008.MPLS
Size: 12,288 bytes
Length: 0:03:09.522
Total Bitrate: 0.00 Mbps
Video: MPEG-4 AVC Video / 146 kbps / 1080i / 29.970 fps / 16:9 / High Profile 4.1
Audio: Undetermined / LPCM Audio / 2.0 / 48 kHz / 2304 kbps / 24-bit
********************
PLAYLIST: 00005.MPLS
********************
<--- BEGIN FORUMS PASTE --->
Код:
Код:
                                                                                Total   Video
Title                                                           Codec   Length  Movie Size      Disc Size       Bitrate Bitrate Main Audio Track                          Secondary Audio Track
-----                                                           ------  ------- --------------  --------------  ------- ------- ------------------                        ---------------------
00005.MPLS                                                      AVC     0:02:59 12,288          42,738,557,575  0.00    0.15    LPCM 2.0 2304Kbps (48kHz/24-bit)

Код:
Код:
DISC INFO:
Disc Title:     BARBIERE
Disc Size:      42,738,557,575 bytes
Protection:     AACS
BD-Java:        No
BDInfo:         0.5.8
PLAYLIST REPORT:
Name:                   00005.MPLS
Length:                 0:02:59.512 (h:m:s.ms)
Size:                   12,288 bytes
Total Bitrate:          0.00 Mbps
VIDEO:
Codec                   Bitrate             Description
-----                   -------             -----------
MPEG-4 AVC Video        146 kbps            1080i / 29.970 fps / 16:9 / High Profile 4.1
AUDIO:
Codec                           Language        Bitrate         Description
-----                           --------        -------         -----------
LPCM Audio                      Undetermined    2304 kbps       2.0 / 48 kHz / 2304 kbps / 24-bit
FILES:
Name            Time In         Length          Size            Total Bitrate
----            -------         ------          ----            -------------
00007.M2TS      0:00:00.000     0:02:59.178     0               0
00000.M2TS      0:02:59.178     0:00:00.333     12,288          295
CHAPTERS:
Number          Time In         Length          Avg Video Rate  Max 1-Sec Rate  Max 1-Sec Time  Max 5-Sec Rate  Max 5-Sec Time  Max 10Sec Rate  Max 10Sec Time  Avg Frame Size  Max Frame Size  Max Frame Time
------          -------         ------          --------------  --------------  --------------  --------------  --------------  --------------  --------------  --------------  --------------  --------------
1               0:00:00.000     0:02:59.512     0 kbps          0 kbps          00:00:00.000    0 kbps          00:00:00.000    0 kbps          00:00:00.000    611 bytes       2,437 bytes     00:02:59.178
STREAM DIAGNOSTICS:
File            PID             Type            Codec           Language                Seconds                 Bitrate                 Bytes           Packets
----            ---             ----            -----           --------                --------------          --------------          -------------   -----
00007.M2TS      4113 (0x1011)   0x1B            AVC                                     0                       0                       0               0
00007.M2TS      4352 (0x1100)   0x80            LPCM            und (Undetermined)      0                       0                       0               0
00000.M2TS      4113 (0x1011)   0x1B            AVC                                     0.200                   244                     6,107           41

Код:
<---- END FORUMS PASTE ---->
QUICK SUMMARY:
Disc Title: BARBIERE
Disc Size: 42,738,557,575 bytes
Protection: AACS
BD-Java: No
Playlist: 00005.MPLS
Size: 12,288 bytes
Length: 0:02:59.512
Total Bitrate: 0.00 Mbps
Video: MPEG-4 AVC Video / 146 kbps / 1080i / 29.970 fps / 16:9 / High Profile 4.1
Audio: Undetermined / LPCM Audio / 2.0 / 48 kHz / 2304 kbps / 24-bit
********************
PLAYLIST: 00004.MPLS
********************
<--- BEGIN FORUMS PASTE --->
Код:
Код:
                                                                                Total   Video
Title                                                           Codec   Length  Movie Size      Disc Size       Bitrate Bitrate Main Audio Track                          Secondary Audio Track
-----                                                           ------  ------- --------------  --------------  ------- ------- ------------------                        ---------------------
00004.MPLS                                                      AVC     0:02:57 12,288          42,738,557,575  0.00    0.15    LPCM 2.0 2304Kbps (48kHz/24-bit)

Код:
Код:
DISC INFO:
Disc Title:     BARBIERE
Disc Size:      42,738,557,575 bytes
Protection:     AACS
BD-Java:        No
BDInfo:         0.5.8
PLAYLIST REPORT:
Name:                   00004.MPLS
Length:                 0:02:57.510 (h:m:s.ms)
Size:                   12,288 bytes
Total Bitrate:          0.00 Mbps
VIDEO:
Codec                   Bitrate             Description
-----                   -------             -----------
MPEG-4 AVC Video        146 kbps            1080i / 29.970 fps / 16:9 / High Profile 4.1
AUDIO:
Codec                           Language        Bitrate         Description
-----                           --------        -------         -----------
LPCM Audio                      Undetermined    2304 kbps       2.0 / 48 kHz / 2304 kbps / 24-bit
FILES:
Name            Time In         Length          Size            Total Bitrate
----            -------         ------          ----            -------------
00002.M2TS      0:00:00.000     0:02:57.177     0               0
00000.M2TS      0:02:57.177     0:00:00.333     12,288          295
CHAPTERS:
Number          Time In         Length          Avg Video Rate  Max 1-Sec Rate  Max 1-Sec Time  Max 5-Sec Rate  Max 5-Sec Time  Max 10Sec Rate  Max 10Sec Time  Avg Frame Size  Max Frame Size  Max Frame Time
------          -------         ------          --------------  --------------  --------------  --------------  --------------  --------------  --------------  --------------  --------------  --------------
1               0:00:00.000     0:02:57.510     0 kbps          0 kbps          00:00:00.000    0 kbps          00:00:00.000    0 kbps          00:00:00.000    611 bytes       2,437 bytes     00:02:57.177
STREAM DIAGNOSTICS:
File            PID             Type            Codec           Language                Seconds                 Bitrate                 Bytes           Packets
----            ---             ----            -----           --------                --------------          --------------          -------------   -----
00002.M2TS      4113 (0x1011)   0x1B            AVC                                     0                       0                       0               0
00002.M2TS      4352 (0x1100)   0x80            LPCM            und (Undetermined)      0                       0                       0               0
00000.M2TS      4113 (0x1011)   0x1B            AVC                                     0.200                   244                     6,107           41

Код:
<---- END FORUMS PASTE ---->
QUICK SUMMARY:
Disc Title: BARBIERE
Disc Size: 42,738,557,575 bytes
Protection: AACS
BD-Java: No
Playlist: 00004.MPLS
Size: 12,288 bytes
Length: 0:02:57.510
Total Bitrate: 0.00 Mbps
Video: MPEG-4 AVC Video / 146 kbps / 1080i / 29.970 fps / 16:9 / High Profile 4.1
Audio: Undetermined / LPCM Audio / 2.0 / 48 kHz / 2304 kbps / 24-bit
********************
PLAYLIST: 00006.MPLS
********************
<--- BEGIN FORUMS PASTE --->
Код:
Код:
                                                                                Total   Video
Title                                                           Codec   Length  Movie Size      Disc Size       Bitrate Bitrate Main Audio Track                          Secondary Audio Track
-----                                                           ------  ------- --------------  --------------  ------- ------- ------------------                        ---------------------
00006.MPLS                                                      AVC     0:02:54 12,288          42,738,557,575  0.00    0.15    LPCM 2.0 2304Kbps (48kHz/24-bit)

Код:
Код:
DISC INFO:
Disc Title:     BARBIERE
Disc Size:      42,738,557,575 bytes
Protection:     AACS
BD-Java:        No
BDInfo:         0.5.8
PLAYLIST REPORT:
Name:                   00006.MPLS
Length:                 0:02:54.507 (h:m:s.ms)
Size:                   12,288 bytes
Total Bitrate:          0.00 Mbps
VIDEO:
Codec                   Bitrate             Description
-----                   -------             -----------
MPEG-4 AVC Video        146 kbps            1080i / 29.970 fps / 16:9 / High Profile 4.1
AUDIO:
Codec                           Language        Bitrate         Description
-----                           --------        -------         -----------
LPCM Audio                      Undetermined    2304 kbps       2.0 / 48 kHz / 2304 kbps / 24-bit
FILES:
Name            Time In         Length          Size            Total Bitrate
----            -------         ------          ----            -------------
00008.M2TS      0:00:00.000     0:02:54.173     0               0
00000.M2TS      0:02:54.173     0:00:00.333     12,288          295
CHAPTERS:
Number          Time In         Length          Avg Video Rate  Max 1-Sec Rate  Max 1-Sec Time  Max 5-Sec Rate  Max 5-Sec Time  Max 10Sec Rate  Max 10Sec Time  Avg Frame Size  Max Frame Size  Max Frame Time
------          -------         ------          --------------  --------------  --------------  --------------  --------------  --------------  --------------  --------------  --------------  --------------
1               0:00:00.000     0:02:54.507     0 kbps          0 kbps          00:00:00.000    0 kbps          00:00:00.000    0 kbps          00:00:00.000    611 bytes       2,437 bytes     00:02:54.173
STREAM DIAGNOSTICS:
File            PID             Type            Codec           Language                Seconds                 Bitrate                 Bytes           Packets
----            ---             ----            -----           --------                --------------          --------------          -------------   -----
00008.M2TS      4113 (0x1011)   0x1B            AVC                                     0                       0                       0               0
00008.M2TS      4352 (0x1100)   0x80            LPCM            und (Undetermined)      0                       0                       0               0
00000.M2TS      4113 (0x1011)   0x1B            AVC                                     0.200                   244                     6,107           41

Код:
<---- END FORUMS PASTE ---->
QUICK SUMMARY:
Disc Title: BARBIERE
Disc Size: 42,738,557,575 bytes
Protection: AACS
BD-Java: No
Playlist: 00006.MPLS
Size: 12,288 bytes
Length: 0:02:54.507
Total Bitrate: 0.00 Mbps
Video: MPEG-4 AVC Video / 146 kbps / 1080i / 29.970 fps / 16:9 / High Profile 4.1
Audio: Undetermined / LPCM Audio / 2.0 / 48 kHz / 2304 kbps / 24-bit
********************
PLAYLIST: 00007.MPLS
********************
<--- BEGIN FORUMS PASTE --->
Код:
Код:
                                                                                Total   Video
Title                                                           Codec   Length  Movie Size      Disc Size       Bitrate Bitrate Main Audio Track                          Secondary Audio Track
-----                                                           ------  ------- --------------  --------------  ------- ------- ------------------                        ---------------------
00007.MPLS                                                      AVC     0:02:53 12,288          42,738,557,575  0.00    0.15    LPCM 2.0 2304Kbps (48kHz/24-bit)

Код:
Код:
DISC INFO:
Disc Title:     BARBIERE
Disc Size:      42,738,557,575 bytes
Protection:     AACS
BD-Java:        No
BDInfo:         0.5.8
PLAYLIST REPORT:
Name:                   00007.MPLS
Length:                 0:02:53.506 (h:m:s.ms)
Size:                   12,288 bytes
Total Bitrate:          0.00 Mbps
VIDEO:
Codec                   Bitrate             Description
-----                   -------             -----------
MPEG-4 AVC Video        146 kbps            1080i / 29.970 fps / 16:9 / High Profile 4.1
AUDIO:
Codec                           Language        Bitrate         Description
-----                           --------        -------         -----------
LPCM Audio                      Undetermined    2304 kbps       2.0 / 48 kHz / 2304 kbps / 24-bit
FILES:
Name            Time In         Length          Size            Total Bitrate
----            -------         ------          ----            -------------
00009.M2TS      0:00:00.000     0:02:53.173     0               0
00000.M2TS      0:02:53.173     0:00:00.333     12,288          295
CHAPTERS:
Number          Time In         Length          Avg Video Rate  Max 1-Sec Rate  Max 1-Sec Time  Max 5-Sec Rate  Max 5-Sec Time  Max 10Sec Rate  Max 10Sec Time  Avg Frame Size  Max Frame Size  Max Frame Time
------          -------         ------          --------------  --------------  --------------  --------------  --------------  --------------  --------------  --------------  --------------  --------------
1               0:00:00.000     0:02:53.506     0 kbps          0 kbps          00:00:00.000    0 kbps          00:00:00.000    0 kbps          00:00:00.000    611 bytes       2,437 bytes     00:02:53.173
STREAM DIAGNOSTICS:
File            PID             Type            Codec           Language                Seconds                 Bitrate                 Bytes           Packets
----            ---             ----            -----           --------                --------------          --------------          -------------   -----
00009.M2TS      4113 (0x1011)   0x1B            AVC                                     0                       0                       0               0
00009.M2TS      4352 (0x1100)   0x80            LPCM            und (Undetermined)      0                       0                       0               0
00000.M2TS      4113 (0x1011)   0x1B            AVC                                     0.200                   244                     6,107           41

Код:
<---- END FORUMS PASTE ---->
QUICK SUMMARY:
Disc Title: BARBIERE
Disc Size: 42,738,557,575 bytes
Protection: AACS
BD-Java: No
Playlist: 00007.MPLS
Size: 12,288 bytes
Length: 0:02:53.506
Total Bitrate: 0.00 Mbps
Video: MPEG-4 AVC Video / 146 kbps / 1080i / 29.970 fps / 16:9 / High Profile 4.1
Audio: Undetermined / LPCM Audio / 2.0 / 48 kHz / 2304 kbps / 24-bit

Правила, инструкции, FAQ!!!
Торрент  Добавлен [05 июн 2020, 23:04] Скачать торрент Магнет ссылка
Скачать торрент
[ Размер 203.16 КБ / Просмотров 5 ]

Статус
Проверен 
 
Размер  39.8 ГБ
Приватный: Нет (DHT включён)
.torrent скачан  0
 


     Отправить личное сообщение
   
Страница 1 из 1
Показать сообщения за:  Поле сортировки  
Начать новую тему Ответить на тему


Сейчас этот форум просматривают: нет зарегистрированных пользователей и гости: 0


Вы не можете начинать темы
Вы не можете отвечать на сообщения
Вы не можете редактировать свои сообщения
Вы не можете удалять свои сообщения
Вы не можете добавлять вложения

Перейти:  
cron