Начать новую тему Ответить на тему
Статистика раздачи
Размер: 292.83 МБ | Добавлен: 26 мар 2019, 20:15 | Скачали: 0
Сидеров: 0  [0 байт/сек]    Личеров: 0  [0 байт/сек]
Пред. тема | След. тема 

Автор
Сообщение

СообщениеДобавлено: 26 мар 2019, 20:15 

Ответить с цитатой 

The Creatures Of The Golden Dawn / The Keys To The Kingdom
Жанр: Garage Rock, Pop Rock
Носитель: CD
Страна-производитель диска (релиза): USA
Год издания: 1997
Издатель (лейбл): Collectables
Номер по каталогу: COL-CD-0698
Аудиокодек: FLAC (*.flac)
Тип рипа: tracks+.cue
Битрейт аудио: lossless
Продолжительность: 0:42:46.
Источник (релизер): clustert
Наличие сканов в содержимом раздачи: да
Треклист:
01. Just Like That [0:02:35.20]
02. We Don't See Eye To Eye [0:02:39.40]
03. Where You Gonna Go [0:02:47.02]
04. Wake Up Girl [0:02:17.55]
05. Cynthia Cellophane [0:02:47.40]
06. Remembering Memory Lane [0:01:56.38]
07. Teardrop Time [0:02:57.35]
08. The Golden Dawn Is Near [0:02:13.00]
09. Zuzu Girl [0:02:50.72]
10. Tripping [0:03:51.38]
11. I Want Out [0:02:47.25]
12. My Brother The Man [0:02:04.40]
13. She Reminds Me Of You [0:02:17.17]
14. Love Me Don't [0:02:20.55]
15. Shake Your Hips [0:03:10.35]
16. No One Left Love [0:03:09.55]
Код:
Exact Audio Copy V1.0 beta 3 from 29. August 2011
Отчёт EAC об извлечении, выполненном 30. октября 2015, 22:31
Creatures Of The Golden Dawn / The Keys To The Kingdom
Дисковод: ASUS    DRW-1814BLT   Adapter: 4  ID: 0
Режим чтения                 : Достоверность
Использование точного потока : Да
Отключение кэша аудио        : Да
Использование указателей C2  : Нет
Коррекция смещения при чтении                     : 6
Способность читать области Lead-in и Lead-out     : Нет
Заполнение пропущенных сэмплов тишиной            : Да
Удаление блоков с тишиной в начале и конце        : Нет
При вычислениях CRC использовались нулевые сэмплы : Да
Интерфейс                                         : Встроенный Win32-интерфейс для Win NT/2000
Обработка зазоров                                 : Добавлено к предыдущему треку
Выходной формат          : Пользовательский кодировщик
Выбранный битрейт        : 128 kBit/s
Качество                 : Высокий
Добавление ID3-тега      : Нет
Утилита сжатия           : C:\Program Files\Exact Audio Copy\Flac\flac.exe
Дополнительные параметры :  -V -8 -T "Genre=%genre%" -T "Artist=%artist%" -T "Title=%title%" -T "Album=%albumtitle%" -T "Date=%year%" -T "Tracknumber=%tracknr%" -T "Comment=EAC1.0b2 FLAC -8" %source%
TOC извлечённого CD
     Трек |   Старт  | Длительность | Начальный сектор | Конечный сектор
    ---------------------------------------------------------------------
       1  |  0:00.00 |    2:35.20   |           0      |      11644
       2  |  2:35.20 |    2:39.40   |       11645      |      23609
       3  |  5:14.60 |    2:47.02   |       23610      |      36136
       4  |  8:01.62 |    2:17.55   |       36137      |      46466
       5  | 10:19.42 |    2:47.40   |       46467      |      59031
       6  | 13:07.07 |    1:56.38   |       59032      |      67769
       7  | 15:03.45 |    2:57.35   |       67770      |      81079
       8  | 18:01.05 |    2:13.00   |       81080      |      91054
       9  | 20:14.05 |    2:50.72   |       91055      |     103876
      10  | 23:05.02 |    3:51.38   |      103877      |     121239
      11  | 26:56.40 |    2:47.25   |      121240      |     133789
      12  | 29:43.65 |    2:04.40   |      133790      |     143129
      13  | 31:48.30 |    2:17.17   |      143130      |     153421
      14  | 34:05.47 |    2:20.55   |      153422      |     163976
      15  | 36:26.27 |    3:10.35   |      163977      |     178261
      16  | 39:36.62 |    3:09.55   |      178262      |     192491
Трек  1
     Имя файла R:\Раздача 55\The Creatures Of The Golden Dawn - 1997 - The Keys To The Kingdom\01 Just Like That.wav
     Длина предзазора  0:00:02.00
     Пиковый уровень 99.9 %
     Скорость извлечения 4.6 X
     Качество трека 100.0 %
     CRC теста CCFD8E40
     CRC копии CCFD8E40
     Трек не обнаружен в базе AccurateRip
     Копирование... OK
Трек  2
     Имя файла R:\Раздача 55\The Creatures Of The Golden Dawn - 1997 - The Keys To The Kingdom\02 We Don't See Eye To Eye.wav
     Длина предзазора  0:00:02.08
     Пиковый уровень 100.0 %
     Скорость извлечения 5.1 X
     Качество трека 100.0 %
     CRC теста 91706C86
     CRC копии 91706C86
     Трек не обнаружен в базе AccurateRip
     Копирование... OK
Трек  3
     Имя файла R:\Раздача 55\The Creatures Of The Golden Dawn - 1997 - The Keys To The Kingdom\03 Where You Gonna Go.wav
     Длина предзазора  0:00:02.43
     Пиковый уровень 99.9 %
     Скорость извлечения 5.4 X
     Качество трека 100.0 %
     CRC теста F717654F
     CRC копии F717654F
     Трек не обнаружен в базе AccurateRip
     Копирование... OK
Трек  4
     Имя файла R:\Раздача 55\The Creatures Of The Golden Dawn - 1997 - The Keys To The Kingdom\04 Wake Up Girl.wav
     Длина предзазора  0:00:01.50
     Пиковый уровень 99.9 %
     Скорость извлечения 5.5 X
     Качество трека 100.0 %
     CRC теста 9933B341
     CRC копии 9933B341
     Трек не обнаружен в базе AccurateRip
     Копирование... OK
Трек  5
     Имя файла R:\Раздача 55\The Creatures Of The Golden Dawn - 1997 - The Keys To The Kingdom\05 Cynthia Cellophane.wav
     Длина предзазора  0:00:02.45
     Пиковый уровень 99.9 %
     Скорость извлечения 6.0 X
     Качество трека 100.0 %
     CRC теста 6AB123A5
     CRC копии 6AB123A5
     Трек не обнаружен в базе AccurateRip
     Копирование... OK
Трек  6
     Имя файла R:\Раздача 55\The Creatures Of The Golden Dawn - 1997 - The Keys To The Kingdom\06 Remembering Memory Lane.wav
     Длина предзазора  0:00:02.25
     Пиковый уровень 99.9 %
     Скорость извлечения 3.9 X
     Качество трека 99.9 %
     CRC теста 553A84F1
     CRC копии 553A84F1
     Трек не обнаружен в базе AccurateRip
     Копирование... OK
Трек  7
     Имя файла R:\Раздача 55\The Creatures Of The Golden Dawn - 1997 - The Keys To The Kingdom\07 Teardrop Time.wav
     Длина предзазора  0:00:02.33
     Пиковый уровень 99.9 %
     Скорость извлечения 6.5 X
     Качество трека 100.0 %
     CRC теста A7F2430C
     CRC копии A7F2430C
     Трек не обнаружен в базе AccurateRip
     Копирование... OK
Трек  8
     Имя файла R:\Раздача 55\The Creatures Of The Golden Dawn - 1997 - The Keys To The Kingdom\08 The Golden Dawn Is Near.wav
     Длина предзазора  0:00:02.13
     Пиковый уровень 99.9 %
     Скорость извлечения 6.5 X
     Качество трека 100.0 %
     CRC теста 1F812D87
     CRC копии 1F812D87
     Трек не обнаружен в базе AccurateRip
     Копирование... OK
Трек  9
     Имя файла R:\Раздача 55\The Creatures Of The Golden Dawn - 1997 - The Keys To The Kingdom\09 Zuzu Girl.wav
     Длина предзазора  0:00:02.13
     Пиковый уровень 100.0 %
     Скорость извлечения 5.0 X
     Качество трека 99.9 %
     CRC теста 2901DC85
     CRC копии 2901DC85
     Трек не обнаружен в базе AccurateRip
     Копирование... OK
Трек 10
     Имя файла R:\Раздача 55\The Creatures Of The Golden Dawn - 1997 - The Keys To The Kingdom\10 Tripping.wav
     Длина предзазора  0:00:02.27
     Пиковый уровень 100.0 %
     Скорость извлечения 7.7 X
     Качество трека 100.0 %
     CRC теста 1B3C543B
     CRC копии 1B3C543B
     Трек не обнаружен в базе AccurateRip
     Копирование... OK
Трек 11
     Имя файла R:\Раздача 55\The Creatures Of The Golden Dawn - 1997 - The Keys To The Kingdom\11 I Want Out.wav
     Длина предзазора  0:00:02.40
     Пиковый уровень 99.9 %
     Скорость извлечения 5.3 X
     Качество трека 99.9 %
     CRC теста DBF4E0C1
     CRC копии DBF4E0C1
     Трек не обнаружен в базе AccurateRip
     Копирование... OK
Трек 12
     Имя файла R:\Раздача 55\The Creatures Of The Golden Dawn - 1997 - The Keys To The Kingdom\12 My Brother The Man.wav
     Длина предзазора  0:00:02.18
     Пиковый уровень 99.9 %
     Скорость извлечения 7.2 X
     Качество трека 100.0 %
     CRC теста B0A6C0FA
     CRC копии B0A6C0FA
     Трек не обнаружен в базе AccurateRip
     Копирование... OK
Трек 13
     Имя файла R:\Раздача 55\The Creatures Of The Golden Dawn - 1997 - The Keys To The Kingdom\13 She Reminds Me Of You.wav
     Длина предзазора  0:00:02.23
     Пиковый уровень 99.9 %
     Скорость извлечения 7.6 X
     Качество трека 100.0 %
     CRC теста 9C06CBE8
     CRC копии 9C06CBE8
     Трек не обнаружен в базе AccurateRip
     Копирование... OK
Трек 14
     Имя файла R:\Раздача 55\The Creatures Of The Golden Dawn - 1997 - The Keys To The Kingdom\14 Love Me Don't.wav
     Пиковый уровень 98.5 %
     Скорость извлечения 5.4 X
     Качество трека 99.9 %
     CRC теста 38CC995B
     CRC копии 38CC995B
     Трек не обнаружен в базе AccurateRip
     Копирование... OK
Трек 15
     Имя файла R:\Раздача 55\The Creatures Of The Golden Dawn - 1997 - The Keys To The Kingdom\15 Shake Your Hips.wav
     Длина предзазора  0:00:02.05
     Пиковый уровень 99.9 %
     Скорость извлечения 8.4 X
     Качество трека 100.0 %
     CRC теста 3AFBD36E
     CRC копии 3AFBD36E
     Трек не обнаружен в базе AccurateRip
     Копирование... OK
Трек 16
     Имя файла R:\Раздача 55\The Creatures Of The Golden Dawn - 1997 - The Keys To The Kingdom\16 No One Left Love.wav
     Длина предзазора  0:00:02.32
     Пиковый уровень 99.9 %
     Скорость извлечения 8.6 X
     Качество трека 100.0 %
     CRC теста A0A0C904
     CRC копии A0A0C904
     Трек не обнаружен в базе AccurateRip
     Копирование... OK
Ни одного трека нет в базе AccurateRip
Ошибок не произошло
Конец отчёта
==== Контрольная сумма отчёта F6FD7DE2EF1B22E29111A7B74D85DFE82684CB25C6E1EB375F41BC8C7A0B7F30 ====
Код:
REM GENRE Pop-Rock
REM DATE 1997
REM DISCID E40A0610
REM COMMENT "ExactAudioCopy v1.0b3"
PERFORMER "Creatures Of The Golden Dawn"
TITLE "The Keys To The Kingdom"
FILE "01 Just Like That.wav" WAVE
  TRACK 01 AUDIO
    TITLE "Just Like That"
    PERFORMER "Creatures Of The Golden Dawn"
    INDEX 01 00:00:00
  TRACK 02 AUDIO
    TITLE "We Don't See Eye To Eye"
    PERFORMER "Creatures Of The Golden Dawn"
    INDEX 00 02:33:12
FILE "02 We Don't See Eye To Eye.wav" WAVE
    INDEX 01 00:00:00
  TRACK 03 AUDIO
    TITLE "Where You Gonna Go "
    PERFORMER "Creatures Of The Golden Dawn"
    INDEX 00 02:36:72
FILE "03 Where You Gonna Go.wav" WAVE
    INDEX 01 00:00:00
  TRACK 04 AUDIO
    TITLE "Wake Up Girl"
    PERFORMER "Creatures Of The Golden Dawn"
    INDEX 00 02:45:27
FILE "04 Wake Up Girl.wav" WAVE
    INDEX 01 00:00:00
  TRACK 05 AUDIO
    TITLE "Cynthia Cellophane"
    PERFORMER "Creatures Of The Golden Dawn"
    INDEX 00 02:15:10
FILE "05 Cynthia Cellophane.wav" WAVE
    INDEX 01 00:00:00
  TRACK 06 AUDIO
    TITLE "Remembering Memory Lane"
    PERFORMER "Creatures Of The Golden Dawn"
    INDEX 00 02:45:15
FILE "06 Remembering Memory Lane.wav" WAVE
    INDEX 01 00:00:00
  TRACK 07 AUDIO
    TITLE "Teardrop Time"
    PERFORMER "Creatures Of The Golden Dawn"
    INDEX 00 01:54:05
FILE "07 Teardrop Time.wav" WAVE
    INDEX 01 00:00:00
  TRACK 08 AUDIO
    TITLE "The Golden Dawn Is Near"
    PERFORMER "Creatures Of The Golden Dawn"
    INDEX 00 02:55:22
FILE "08 The Golden Dawn Is Near.wav" WAVE
    INDEX 01 00:00:00
  TRACK 09 AUDIO
    TITLE "Zuzu Girl"
    PERFORMER "Creatures Of The Golden Dawn"
    INDEX 00 02:10:62
FILE "09 Zuzu Girl.wav" WAVE
    INDEX 01 00:00:00
  TRACK 10 AUDIO
    TITLE "Tripping"
    PERFORMER "Creatures Of The Golden Dawn"
    INDEX 00 02:48:45
FILE "10 Tripping.wav" WAVE
    INDEX 01 00:00:00
  TRACK 11 AUDIO
    TITLE "I Want Out"
    PERFORMER "Creatures Of The Golden Dawn"
    INDEX 00 03:48:73
FILE "11 I Want Out.wav" WAVE
    INDEX 01 00:00:00
  TRACK 12 AUDIO
    TITLE "My Brother The Man"
    PERFORMER "Creatures Of The Golden Dawn"
    INDEX 00 02:45:07
FILE "12 My Brother The Man.wav" WAVE
    INDEX 01 00:00:00
  TRACK 13 AUDIO
    TITLE "She Reminds Me Of You"
    PERFORMER "Creatures Of The Golden Dawn"
    INDEX 00 02:02:17
FILE "13 She Reminds Me Of You.wav" WAVE
    INDEX 01 00:00:00
FILE "14 Love Me Don't.wav" WAVE
  TRACK 14 AUDIO
    TITLE "Love Me Don't"
    PERFORMER "Creatures Of The Golden Dawn"
    INDEX 01 00:00:00
  TRACK 15 AUDIO
    TITLE "Shake Your Hips"
    PERFORMER "Creatures Of The Golden Dawn"
    INDEX 00 02:18:50
FILE "15 Shake Your Hips.wav" WAVE
    INDEX 01 00:00:00
  TRACK 16 AUDIO
    TITLE "No One Left Love"
    PERFORMER "Creatures Of The Golden Dawn"
    INDEX 00 03:08:03
FILE "16 No One Left Love.wav" WAVE
    INDEX 01 00:00:00
Правила, инструкции, FAQ!!!
Торрент  Добавлен [26 мар 2019, 20:15] Скачать торрент Магнет ссылка
Скачать торрент
[ Размер 13.65 КБ / Просмотров 1 ]

Статус
Проверен 
 
Размер  292.83 МБ
Приватный: Нет (DHT включён)
.torrent скачан  0
 


     Отправить личное сообщение
   
Страница 1 из 1
Показать сообщения за:  Поле сортировки  
Начать новую тему Ответить на тему


Сейчас этот форум просматривают: нет зарегистрированных пользователей и гости: 0


Вы не можете начинать темы
Вы не можете отвечать на сообщения
Вы не можете редактировать свои сообщения
Вы не можете удалять свои сообщения
Вы не можете добавлять вложения

Перейти:  
cron