Начать новую тему Ответить на тему
Статистика раздачи
Размер: 272.42 МБ | Добавлен: 26 мар 2019, 20:45 | Скачали: 0
Сидеров: 37  [0 байт/сек]    Личеров: 0  [0 байт/сек]
Пред. тема | След. тема 

Автор
Сообщение

СообщениеДобавлено: 26 мар 2019, 20:45 

Ответить с цитатой 

Hanni El Khatib / Moonlight
Жанр: Garage Rock / Alternative Rock / Blues-Rock
Носитель: CD
Год издания: 2015
Издатель (лейбл): Innovative Leisure
Номер по каталогу: IL2025
Страна исполнителя (группы): US
Аудиокодек: FLAC (*.flac)
Тип рипа: tracks+.cue
Битрейт аудио: lossless
Продолжительность: 41:31
Источник (релизер): what.cd
Наличие сканов в содержимом раздачи: нет
Треклист:
01. Moonlight
02. Melt Me
03. The Teeth
04. Chasin ‘
05. Worship Song (No. 2)
06. Mexico
07. Servant
08. All Black
09. Home
10. Dance Hall
11. Two Brothers
http://hannielkhatib.com/
Код:
X Lossless Decoder version 20140504 (147.0)
XLD extraction logfile from 2014-12-22 09:44:19 +0100
Hanni El Khatib / Moonlight
Used drive : HL-DT-ST DVDRW  GS31N (revision TA17)
Media type : Pressed CD
Ripper mode             : XLD Secure Ripper
Disable audio cache     : OK for the drive with a cache less than 1375KiB
Make use of C2 pointers : NO
Read offset correction  : 667
Max retry count         : 100
Gap status              : Analyzed, Appended (except HTOA)
TOC of the extracted CD
     Track |   Start  |  Length  | Start sector | End sector
    ---------------------------------------------------------
        1  | 00:00:00 | 03:33:06 |         0    |    15980
        2  | 03:33:06 | 03:40:56 |     15981    |    32536
        3  | 07:13:62 | 03:11:31 |     32537    |    46892
        4  | 10:25:18 | 02:49:34 |     46893    |    59601
        5  | 13:14:52 | 04:01:66 |     59602    |    77742
        6  | 17:16:43 | 04:56:51 |     77743    |    99993
        7  | 22:13:19 | 04:16:32 |     99994    |   119225
        8  | 26:29:51 | 02:39:73 |    119226    |   131223
        9  | 29:09:49 | 03:10:37 |    131224    |   145510
       10  | 32:20:11 | 03:29:08 |    145511    |   161193
       11  | 35:49:19 | 05:47:46 |    161194    |   187264
AccurateRip Summary
    Disc not found in AccurateRip DB.
All Tracks
    Album gain               : -8.91 dB
    Peak                     : 0.993103
    Statistics
        Read error                           : 0
        Jitter error (maybe fixed)           : 0
        Retry sector count                   : 0
        Damaged sector count                 : 0
Track 01
    Filename : /Users/guerolito/Desktop/Torrents/Hanni El Khatib - Moonlight (2015) [FLAC]/01 Moonlight.flac
               /Users/guerolito/Desktop/Torrents/Hanni El Khatib - Moonlight (2015) [LAME MP3 (320)]/01 Moonlight.mp3
               /Users/guerolito/Desktop/Torrents/Hanni El Khatib - Moonlight (2015) [LAME MP3 (V0)]/01 Moonlight.mp3
    Pre-gap length : 00:02:00
    Track gain               : -7.85 dB
    Peak                     : 0.993103
    CRC32 hash (test run)    : 1B47F91B
    CRC32 hash               : 1B47F91B
    CRC32 hash (skip zero)   : 2E405B4A
    AccurateRip v1 signature : A18905EC
    AccurateRip v2 signature : B0DB8EF9
        ->Track not present in AccurateRip database.
    Statistics
        Read error                           : 0
        Jitter error (maybe fixed)           : 0
        Retry sector count                   : 0
        Damaged sector count                 : 0
Track 02
    Filename : /Users/guerolito/Desktop/Torrents/Hanni El Khatib - Moonlight (2015) [FLAC]/02 Melt Me.flac
               /Users/guerolito/Desktop/Torrents/Hanni El Khatib - Moonlight (2015) [LAME MP3 (320)]/02 Melt Me.mp3
               /Users/guerolito/Desktop/Torrents/Hanni El Khatib - Moonlight (2015) [LAME MP3 (V0)]/02 Melt Me.mp3
    Track gain               : -10.20 dB
    Peak                     : 0.993103
    CRC32 hash (test run)    : C7827E73
    CRC32 hash               : C7827E73
    CRC32 hash (skip zero)   : C0DF52E3
    AccurateRip v1 signature : 51AC4C66
    AccurateRip v2 signature : D07EDF80
        ->Track not present in AccurateRip database.
    Statistics
        Read error                           : 0
        Jitter error (maybe fixed)           : 0
        Retry sector count                   : 0
        Damaged sector count                 : 0
Track 03
    Filename : /Users/guerolito/Desktop/Torrents/Hanni El Khatib - Moonlight (2015) [FLAC]/03 The Teeth.flac
               /Users/guerolito/Desktop/Torrents/Hanni El Khatib - Moonlight (2015) [LAME MP3 (320)]/03 The Teeth.mp3
               /Users/guerolito/Desktop/Torrents/Hanni El Khatib - Moonlight (2015) [LAME MP3 (V0)]/03 The Teeth.mp3
    Track gain               : -9.09 dB
    Peak                     : 0.993103
    CRC32 hash (test run)    : 62588996
    CRC32 hash               : 62588996
    CRC32 hash (skip zero)   : 02F0755E
    AccurateRip v1 signature : 1110FE17
    AccurateRip v2 signature : 816222A6
        ->Track not present in AccurateRip database.
    Statistics
        Read error                           : 0
        Jitter error (maybe fixed)           : 0
        Retry sector count                   : 0
        Damaged sector count                 : 0
Track 04
    Filename : /Users/guerolito/Desktop/Torrents/Hanni El Khatib - Moonlight (2015) [FLAC]/04 Chasin'.flac
               /Users/guerolito/Desktop/Torrents/Hanni El Khatib - Moonlight (2015) [LAME MP3 (320)]/04 Chasin'.mp3
               /Users/guerolito/Desktop/Torrents/Hanni El Khatib - Moonlight (2015) [LAME MP3 (V0)]/04 Chasin'.mp3
    Track gain               : -7.73 dB
    Peak                     : 0.993103
    CRC32 hash (test run)    : 45C8783E
    CRC32 hash               : 45C8783E
    CRC32 hash (skip zero)   : 1B1515D7
    AccurateRip v1 signature : 8B316051
    AccurateRip v2 signature : 6CFBCFE6
        ->Track not present in AccurateRip database.
    Statistics
        Read error                           : 0
        Jitter error (maybe fixed)           : 0
        Retry sector count                   : 0
        Damaged sector count                 : 0
Track 05
    Filename : /Users/guerolito/Desktop/Torrents/Hanni El Khatib - Moonlight (2015) [FLAC]/05 Worship Song (No. 2).flac
               /Users/guerolito/Desktop/Torrents/Hanni El Khatib - Moonlight (2015) [LAME MP3 (320)]/05 Worship Song (No. 2).mp3
               /Users/guerolito/Desktop/Torrents/Hanni El Khatib - Moonlight (2015) [LAME MP3 (V0)]/05 Worship Song (No. 2).mp3
    Track gain               : -8.48 dB
    Peak                     : 0.993103
    CRC32 hash (test run)    : E2B18DB3
    CRC32 hash               : E2B18DB3
    CRC32 hash (skip zero)   : CEEA7E4D
    AccurateRip v1 signature : 840D7428
    AccurateRip v2 signature : BF9A097A
        ->Track not present in AccurateRip database.
    Statistics
        Read error                           : 0
        Jitter error (maybe fixed)           : 0
        Retry sector count                   : 0
        Damaged sector count                 : 0
Track 06
    Filename : /Users/guerolito/Desktop/Torrents/Hanni El Khatib - Moonlight (2015) [FLAC]/06 Mexico.flac
               /Users/guerolito/Desktop/Torrents/Hanni El Khatib - Moonlight (2015) [LAME MP3 (320)]/06 Mexico.mp3
               /Users/guerolito/Desktop/Torrents/Hanni El Khatib - Moonlight (2015) [LAME MP3 (V0)]/06 Mexico.mp3
    Track gain               : -9.84 dB
    Peak                     : 0.993103
    CRC32 hash (test run)    : CB5908C4
    CRC32 hash               : CB5908C4
    CRC32 hash (skip zero)   : D2221069
    AccurateRip v1 signature : C6C92C80
    AccurateRip v2 signature : 238C2A70
        ->Track not present in AccurateRip database.
    Statistics
        Read error                           : 0
        Jitter error (maybe fixed)           : 0
        Retry sector count                   : 0
        Damaged sector count                 : 0
Track 07
    Filename : /Users/guerolito/Desktop/Torrents/Hanni El Khatib - Moonlight (2015) [FLAC]/07 Servant.flac
               /Users/guerolito/Desktop/Torrents/Hanni El Khatib - Moonlight (2015) [LAME MP3 (320)]/07 Servant.mp3
               /Users/guerolito/Desktop/Torrents/Hanni El Khatib - Moonlight (2015) [LAME MP3 (V0)]/07 Servant.mp3
    Track gain               : -9.00 dB
    Peak                     : 0.993103
    CRC32 hash (test run)    : 6EABC537
    CRC32 hash               : 6EABC537
    CRC32 hash (skip zero)   : F8374236
    AccurateRip v1 signature : 93ADDAD9
    AccurateRip v2 signature : E2359443
        ->Track not present in AccurateRip database.
    Statistics
        Read error                           : 0
        Jitter error (maybe fixed)           : 0
        Retry sector count                   : 0
        Damaged sector count                 : 0
Track 08
    Filename : /Users/guerolito/Desktop/Torrents/Hanni El Khatib - Moonlight (2015) [FLAC]/08 All Black.flac
               /Users/guerolito/Desktop/Torrents/Hanni El Khatib - Moonlight (2015) [LAME MP3 (320)]/08 All Black.mp3
               /Users/guerolito/Desktop/Torrents/Hanni El Khatib - Moonlight (2015) [LAME MP3 (V0)]/08 All Black.mp3
    Track gain               : -8.48 dB
    Peak                     : 0.993103
    CRC32 hash (test run)    : BFC9114A
    CRC32 hash               : BFC9114A
    CRC32 hash (skip zero)   : AD79E8C7
    AccurateRip v1 signature : CAFDCCBB
    AccurateRip v2 signature : DF9EC241
        ->Track not present in AccurateRip database.
    Statistics
        Read error                           : 0
        Jitter error (maybe fixed)           : 0
        Retry sector count                   : 0
        Damaged sector count                 : 0
Track 09
    Filename : /Users/guerolito/Desktop/Torrents/Hanni El Khatib - Moonlight (2015) [FLAC]/09 Home.flac
               /Users/guerolito/Desktop/Torrents/Hanni El Khatib - Moonlight (2015) [LAME MP3 (320)]/09 Home.mp3
               /Users/guerolito/Desktop/Torrents/Hanni El Khatib - Moonlight (2015) [LAME MP3 (V0)]/09 Home.mp3
    Track gain               : -8.83 dB
    Peak                     : 0.993103
    CRC32 hash (test run)    : 30C0D78D
    CRC32 hash               : 30C0D78D
    CRC32 hash (skip zero)   : E4A4D5A5
    AccurateRip v1 signature : 98904335
    AccurateRip v2 signature : EEA7495D
        ->Track not present in AccurateRip database.
    Statistics
        Read error                           : 0
        Jitter error (maybe fixed)           : 0
        Retry sector count                   : 0
        Damaged sector count                 : 0
Track 10
    Filename : /Users/guerolito/Desktop/Torrents/Hanni El Khatib - Moonlight (2015) [FLAC]/10 Dance Hall.flac
               /Users/guerolito/Desktop/Torrents/Hanni El Khatib - Moonlight (2015) [LAME MP3 (320)]/10 Dance Hall.mp3
               /Users/guerolito/Desktop/Torrents/Hanni El Khatib - Moonlight (2015) [LAME MP3 (V0)]/10 Dance Hall.mp3
    Track gain               : -5.90 dB
    Peak                     : 0.993103
    CRC32 hash (test run)    : 19E5F70C
    CRC32 hash               : 19E5F70C
    CRC32 hash (skip zero)   : 55CBC26F
    AccurateRip v1 signature : 0B40D61C
    AccurateRip v2 signature : 3E3980F0
        ->Track not present in AccurateRip database.
    Statistics
        Read error                           : 0
        Jitter error (maybe fixed)           : 0
        Retry sector count                   : 0
        Damaged sector count                 : 0
Track 11
    Filename : /Users/guerolito/Desktop/Torrents/Hanni El Khatib - Moonlight (2015) [FLAC]/11 Two Brothers.flac
               /Users/guerolito/Desktop/Torrents/Hanni El Khatib - Moonlight (2015) [LAME MP3 (320)]/11 Two Brothers.mp3
               /Users/guerolito/Desktop/Torrents/Hanni El Khatib - Moonlight (2015) [LAME MP3 (V0)]/11 Two Brothers.mp3
    Track gain               : -8.15 dB
    Peak                     : 0.993103
    CRC32 hash (test run)    : 648D7763
    CRC32 hash               : 648D7763
    CRC32 hash (skip zero)   : 24036960
    AccurateRip v1 signature : 604A44B4
    AccurateRip v2 signature : A3EAD03B
        ->Track not present in AccurateRip database.
    Statistics
        Read error                           : 0
        Jitter error (maybe fixed)           : 0
        Retry sector count                   : 0
        Damaged sector count                 : 0
No errors occurred
End of status report
-----BEGIN XLD SIGNATURE-----
Z4TTptx6Qmv9bt9tBYDPsPlZsFWDbHRh1aBHpQnRqm1vR5nI92QWVQ1nQsQGHHzg0WiYGBye6Pw483ZkeU8rXq4MXCAB3Sd0sQq3p8q
-----END XLD SIGNATURE-----
Код:
TITLE "Moonlight"
PERFORMER "Hanni El Khatib"
REM GENRE "Alternative"
REM DATE "2015"
REM DISCNUMBER 1
REM TOTALDISCS 1
REM DISCID 8A09C00B
REM REPLAYGAIN_ALBUM_GAIN -8.91 dB
REM REPLAYGAIN_ALBUM_PEAK 0.993103
FILE "01 Moonlight.flac" WAVE
  TRACK 01 AUDIO
    TITLE "Moonlight"
    PERFORMER "Hanni El Khatib"
    REM REPLAYGAIN_TRACK_GAIN -7.85 dB
    REM REPLAYGAIN_TRACK_PEAK 0.993103
    INDEX 01 00:00:00
FILE "02 Melt Me.flac" WAVE
  TRACK 02 AUDIO
    TITLE "Melt Me"
    PERFORMER "Hanni El Khatib"
    REM REPLAYGAIN_TRACK_GAIN -10.20 dB
    REM REPLAYGAIN_TRACK_PEAK 0.993103
    INDEX 01 00:00:00
FILE "03 The Teeth.flac" WAVE
  TRACK 03 AUDIO
    TITLE "The Teeth"
    PERFORMER "Hanni El Khatib"
    REM REPLAYGAIN_TRACK_GAIN -9.09 dB
    REM REPLAYGAIN_TRACK_PEAK 0.993103
    INDEX 01 00:00:00
FILE "04 Chasin'.flac" WAVE
  TRACK 04 AUDIO
    TITLE "Chasin'"
    PERFORMER "Hanni El Khatib"
    REM REPLAYGAIN_TRACK_GAIN -7.73 dB
    REM REPLAYGAIN_TRACK_PEAK 0.993103
    INDEX 01 00:00:00
FILE "05 Worship Song (No. 2).flac" WAVE
  TRACK 05 AUDIO
    TITLE "Worship Song (No. 2)"
    PERFORMER "Hanni El Khatib"
    REM REPLAYGAIN_TRACK_GAIN -8.48 dB
    REM REPLAYGAIN_TRACK_PEAK 0.993103
    INDEX 01 00:00:00
FILE "06 Mexico.flac" WAVE
  TRACK 06 AUDIO
    TITLE "Mexico"
    PERFORMER "Hanni El Khatib"
    REM REPLAYGAIN_TRACK_GAIN -9.84 dB
    REM REPLAYGAIN_TRACK_PEAK 0.993103
    INDEX 01 00:00:00
FILE "07 Servant.flac" WAVE
  TRACK 07 AUDIO
    TITLE "Servant"
    PERFORMER "Hanni El Khatib"
    REM REPLAYGAIN_TRACK_GAIN -9.00 dB
    REM REPLAYGAIN_TRACK_PEAK 0.993103
    INDEX 01 00:00:00
FILE "08 All Black.flac" WAVE
  TRACK 08 AUDIO
    TITLE "All Black"
    PERFORMER "Hanni El Khatib"
    REM REPLAYGAIN_TRACK_GAIN -8.48 dB
    REM REPLAYGAIN_TRACK_PEAK 0.993103
    INDEX 01 00:00:00
FILE "09 Home.flac" WAVE
  TRACK 09 AUDIO
    TITLE "Home"
    PERFORMER "Hanni El Khatib"
    REM REPLAYGAIN_TRACK_GAIN -8.83 dB
    REM REPLAYGAIN_TRACK_PEAK 0.993103
    INDEX 01 00:00:00
FILE "10 Dance Hall.flac" WAVE
  TRACK 10 AUDIO
    TITLE "Dance Hall"
    PERFORMER "Hanni El Khatib"
    REM REPLAYGAIN_TRACK_GAIN -5.90 dB
    REM REPLAYGAIN_TRACK_PEAK 0.993103
    INDEX 01 00:00:00
FILE "11 Two Brothers.flac" WAVE
  TRACK 11 AUDIO
    TITLE "Two Brothers"
    PERFORMER "Hanni El Khatib"
    REM REPLAYGAIN_TRACK_GAIN -8.15 dB
    REM REPLAYGAIN_TRACK_PEAK 0.993103
    INDEX 01 00:00:00
On his 2011 debut Will The Guns Come Out, Hanni El Khatib tried something he'd never tried before making a bedroom-style recording of his stripped brand of Rock n Roll mostly for the sheer joy of making it. For his ferocious 2013 follow-up Head In The Dirt, he tried something new again, enlisting Dan Auerbach as a producer. But after Head In The Dirts release and almost a year of relentless touring, Hanni knew he needed to go past unpredictable all the way to unprecedented. He needed isolation, time and the chance to experiment. So after 30 days locked in hand-picked L.A. studio The Lair, the result is the album Moonlight the rarest and most welcome kind of album, made at that perfect point in life where confidence, experience, and technique unite to help an artist do anything they want. That's why it starts with a song that sounds like a Mobb Deep beat under a Suicide-style synth drone and ends with an ESG-meets-LCD Soundsystem gone Italo-disco song about life and death. That's why it collides crushing crate-digger drumbeats that'd be right at home on a Can LP or an Eddie Bo 45 with bleeding distorto guitar, bent and broken barroom piano and hallucinatory analogue flourishes.
Правила, инструкции, FAQ!!!
Торрент  Добавлен [26 мар 2019, 20:45] Скачать торрент Магнет ссылка
Скачать торрент
[ Размер 11.69 КБ / Просмотров 2 ]

Статус
Проверен 
 
Размер  272.42 МБ
Приватный: Нет (DHT включён)
.torrent скачан  0
 


     Отправить личное сообщение
   
Страница 1 из 1
Показать сообщения за:  Поле сортировки  
Начать новую тему Ответить на тему


Сейчас этот форум просматривают: нет зарегистрированных пользователей и гости: 0


Вы не можете начинать темы
Вы не можете отвечать на сообщения
Вы не можете редактировать свои сообщения
Вы не можете удалять свои сообщения
Вы не можете добавлять вложения

Перейти:  
cron