Начать новую тему Ответить на тему
Статистика раздачи
Размер: 262.37 МБ | Добавлен: 26 июн 2020, 19:48 | Скачали: 0
Сидеров: 0  [0 байт/сек]    Личеров: 0  [0 байт/сек]
Пред. тема | След. тема 

Автор
Сообщение

СообщениеДобавлено: 26 июн 2020, 19:48 

Ответить с цитатой 

VNV Nation - Solitary EP

Жанр: Futurepop
Год выпуска диска: 1998
Производитель диска: Germany
Аудио кодек: APE
Тип рипа: image+.cue
Битрейт аудио: lossless
Продолжительность: 37:24
Трэклист:
1 Prologue (1:55)
2 Solitary (Signals Version) (8:02)
3 Solitary (Deathstar Disco By Covenant) (5:52) Remix - Covenant
4 Forsaken (Vocal Version) (4:49)
5 Freude (Schlachtfeld Version By :wumpscut:) (4:42) Remix - :wumpscut:
6 Fallout (2:35)
7 Solitary (Signals Edit) (5:26)
8 Solitude (4:00)
Доп. информация: Dependent Records / Mindbase; Mind 015
(re-issue (c) 1999)
Код:
Exact Audio Copy V0.99 prebeta 4 from 23. January 2008
EAC extraction logfile from 6. December 2008, 14:37
VNV Nation / Solitary
Used drive  : PLEXTOR CD-R   PX-W4824A   Adapter: 1  ID: 1
Read mode               : Secure
Utilize accurate stream : Yes
Defeat audio cache      : Yes
Make use of C2 pointers : No
Read offset correction                      : 98
Overread into Lead-In and Lead-Out          : No
Fill up missing offset samples with silence : Yes
Delete leading and trailing silent blocks   : No
Null samples used in CRC calculations       : Yes
Used interface                              : Installed external ASPI interface
Used output format : Internal WAV Routines
Sample format      : 44.100 Hz; 16 Bit; Stereo
TOC of the extracted CD
     Track |   Start  |  Length  | Start sector | End sector
    ---------------------------------------------------------
        1  |  0:00.00 |  1:55.07 |         0  |        8631
        2  |  1:55.07 |  8:02.60 |      8632  |       44841
        3  |  9:57.67 |  5:52.28 |     44842  |       71269
        4  | 15:50.20 |  4:49.34 |     71270  |       92978
        5  | 20:39.54 |  4:42.23 |     92979  |      114151
        6  | 25:22.02 |  2:35.35 |    114152  |      125811
        7  | 27:57.37 |  5:26.25 |    125812  |      150286
        8  | 33:23.62 |  4:00.25 |    150287  |      168311
Range status and errors
Selected range
   Filename J:\VNV Nation - Solitary CDEP\CDImage.wav
   Peak level 98.4 %
   Range quality 100.0 %
   Test CRC 837E0319
   Copy CRC 837E0319
   Copy OK
No errors occurred
AccurateRip summary
Track  1  accurately ripped (confidence 10)  [F51C5F39]
Track  2  accurately ripped (confidence 10)  [A81A698C]
Track  3  accurately ripped (confidence 10)  [34526F42]
Track  4  accurately ripped (confidence 10)  [F490978E]
Track  5  accurately ripped (confidence 10)  [7E4095EE]
Track  6  accurately ripped (confidence 10)  [FB098945]
Track  7  accurately ripped (confidence 10)  [1930E848]
Track  8  accurately ripped (confidence 9)  [E6013AF5]
All tracks accurately ripped
End of status report
Код:
AUDIOCHECKER v2.0 beta (build 457) - by Dester - opdester@freemail.hu
~~~~~~~~~~~~~~~~~~~~~~~~~~~~~~~~~~
-=== DO NOT EDIT THIS FILE! ===-
Path: ...\VNV Nation - Solitary CDEP
1 -=- CDImage.wav -=- CDDA (100%)
190127764
Правила, инструкции, FAQ!!!
Торрент  Добавлен [26 июн 2020, 19:48] Скачать торрент Магнет ссылка
Скачать торрент
[ Размер 10.94 КБ / Просмотров 7 ]

Статус
Проверен 
 
Размер  262.37 МБ
Приватный: Нет (DHT включён)
.torrent скачан  0
 


     Отправить личное сообщение
   
Страница 1 из 1
Показать сообщения за:  Поле сортировки  
Начать новую тему Ответить на тему


Сейчас этот форум просматривают: нет зарегистрированных пользователей и гости: 0


Вы не можете начинать темы
Вы не можете отвечать на сообщения
Вы не можете редактировать свои сообщения
Вы не можете удалять свои сообщения
Вы не можете добавлять вложения

Перейти:  
cron