Начать новую тему Ответить на тему
Статистика раздачи
Размер: 909.37 МБ | Добавлен: 26 июн 2020, 20:09 | Скачали: 0
Сидеров: 0  [0 байт/сек]    Личеров: 0  [0 байт/сек]
Пред. тема | След. тема 

Автор
Сообщение

СообщениеДобавлено: 26 июн 2020, 20:09 

Ответить с цитатой 

VNV Nation - Reformation 01
Жанр: Futurepop
Носитель: CD
Страна-производитель диска: U.S.
Год издания: 2009
Издатель (лейбл): Anachron America
Номер по каталогу: LC-08683
Страна: U.S.
Аудиокодек: FLAC (*.flac)
Тип рипа: tracks+.cue
Битрейт аудио: lossless
Продолжительность: 02:12:44
Источник (релизер): What.CD, havalina
Наличие сканов в содержимом раздачи: нет
Треклист:
1. Joy (Live) (5:25)
2. Chrome (Live) (4:51)
3. Testament (Live) (6:13)
4. Nemesis (Live) (4:35)
5. Endless Skies (Live) (5:55)
6. Farthest Star (Live) (5:02)
7. Procession (Live) (5:23)
8. Entropy (Live) (5:15)
9. Illusion (Live) (4:50)
10. Arena (Live) (5:41)
11. Honour (2003) (Live) (6:53)
12. Perpetual (Live) (8:45)
13. Chrome (27.2 MHz Remix) (6:27)
14. Chrome (SITD Remix) (4:59)
15. Chrome (Apoptygma Berzerk Remix) (4:44)
16. Interceptor (ABM Mix) (5:37)
17. Nemesis (S.A.M. Remix) (3:51)
18. Carry You (Frozen Plasma Remix) (6:37)
19. Still Waters (7:39)
20. Suffer (7:00)
21. Precipice (5:40)
22. As It Fades (Second Movement) (3:31)
23. Main Theme (2:46)
24. Mayhem (2:03)
25. The Lair (2:58)
Код:
Exact Audio Copy V0.99 prebeta 5 from 4. May 2009
EAC extraction logfile from 25. November 2010, 7:15
VNV Nation / Reformation 01 (Live) CD1
Used drive  : ASUS    DRW-1814BLT   Adapter: 3  ID: 1
Read mode               : Secure
Utilize accurate stream : Yes
Defeat audio cache      : Yes
Make use of C2 pointers : No
Read offset correction                      : 6
Overread into Lead-In and Lead-Out          : No
Fill up missing offset samples with silence : Yes
Delete leading and trailing silent blocks   : No
Null samples used in CRC calculations       : Yes
Used interface                              : Native Win32 interface for Win NT & 2000
Gap handling                                : Appended to previous track
Used output format              : User Defined Encoder
Selected bitrate                : 1024 kBit/s
Quality                         : High
Add ID3 tag                     : No
Command line compressor         : C:\Program Files (x86)\Exact Audio Copy\FLAC\FLAC.EXE
Additional command line options : -6 -V -T "ARTIST=%a" -T "TITLE=%t" -T "ALBUM=%g" -T "DATE=%y" -T "TRACKNUMBER=%n" -T "GENRE=%m" -T "COMMENT=%e" %s -o %d
TOC of the extracted CD
     Track |   Start  |  Length  | Start sector | End sector
    ---------------------------------------------------------
        1  |  0:00.00 |  5:27.54 |         0    |    24578
        2  |  5:27.54 |  4:50.72 |     24579    |    46400
        3  | 10:18.51 |  6:13.21 |     46401    |    74396
        4  | 16:31.72 |  4:34.61 |     74397    |    95007
        5  | 21:06.58 |  5:54.60 |     95008    |   121617
        6  | 27:01.43 |  5:02.05 |    121618    |   144272
        7  | 32:03.48 |  5:22.66 |    144273    |   168488
        8  | 37:26.39 |  5:15.30 |    168489    |   192143
        9  | 42:41.69 |  4:49.67 |    192144    |   213885
       10  | 47:31.61 |  5:41.06 |    213886    |   239466
       11  | 53:12.67 |  6:53.03 |    239467    |   270444
       12  | 60:05.70 |  8:45.26 |    270445    |   309845
Track  1
     Filename C:\Temp\01. VNV Nation - Joy (live).wav
     Pre-gap length  0:00:02.00
     Peak level 98.3 %
     Track quality 100.0 %
     Test CRC E11A24E4
     Copy CRC E11A24E4
     Accurately ripped (confidence 33)  [ABA28B7A]
     Copy OK
Track  2
     Filename C:\Temp\02. VNV Nation - Chrome (live).wav
     Peak level 100.0 %
     Track quality 100.0 %
     Test CRC 672B2C7D
     Copy CRC 672B2C7D
     Accurately ripped (confidence 33)  [6042817D]
     Copy OK
Track  3
     Filename C:\Temp\03. VNV Nation - Testament (live).wav
     Peak level 98.3 %
     Track quality 100.0 %
     Test CRC 8505D96B
     Copy CRC 8505D96B
     Accurately ripped (confidence 33)  [52280895]
     Copy OK
Track  4
     Filename C:\Temp\04. VNV Nation - Nemesis (live).wav
     Peak level 98.4 %
     Track quality 100.0 %
     Test CRC E291CF6A
     Copy CRC E291CF6A
     Accurately ripped (confidence 33)  [CABD0787]
     Copy OK
Track  5
     Filename C:\Temp\05. VNV Nation - Endless Skies (live).wav
     Peak level 98.1 %
     Track quality 100.0 %
     Test CRC 2930104B
     Copy CRC 2930104B
     Accurately ripped (confidence 33)  [B1978212]
     Copy OK
Track  6
     Filename C:\Temp\06. VNV Nation - Farthest Star (live).wav
     Peak level 98.3 %
     Track quality 100.0 %
     Test CRC BFF53B1B
     Copy CRC BFF53B1B
     Accurately ripped (confidence 33)  [60AB8578]
     Copy OK
Track  7
     Filename C:\Temp\07. VNV Nation - Procession (live).wav
     Peak level 98.3 %
     Track quality 100.0 %
     Test CRC 5972AE49
     Copy CRC 5972AE49
     Accurately ripped (confidence 33)  [44847721]
     Copy OK
Track  8
     Filename C:\Temp\08. VNV Nation - Entropy (live).wav
     Peak level 98.3 %
     Track quality 100.0 %
     Test CRC C6E8EED8
     Copy CRC C6E8EED8
     Accurately ripped (confidence 33)  [A1466C0F]
     Copy OK
Track  9
     Filename C:\Temp\09. VNV Nation - Illusion (live).wav
     Peak level 98.3 %
     Track quality 99.9 %
     Test CRC F2E7B082
     Copy CRC F2E7B082
     Accurately ripped (confidence 33)  [FD9A650F]
     Copy OK
Track 10
     Filename C:\Temp\10. VNV Nation - Arena (live).wav
     Peak level 98.3 %
     Track quality 100.0 %
     Test CRC E17B2FFA
     Copy CRC E17B2FFA
     Accurately ripped (confidence 33)  [81191998]
     Copy OK
Track 11
     Filename C:\Temp\11. VNV Nation - Honour 2003 (live).wav
     Peak level 98.3 %
     Track quality 100.0 %
     Test CRC 6107DCCD
     Copy CRC 6107DCCD
     Accurately ripped (confidence 33)  [7B0E8590]
     Copy OK
Track 12
     Filename C:\Temp\12. VNV Nation - Perpetual (live).wav
     Peak level 98.4 %
     Track quality 99.9 %
     Test CRC EA83C639
     Copy CRC EA83C639
     Accurately ripped (confidence 33)  [9E3165CF]
     Copy OK
All tracks accurately ripped
No errors occurred
End of status report
Exact Audio Copy V0.99 prebeta 5 from 4. May 2009
EAC extraction logfile from 25. November 2010, 7:33
VNV Nation / Reformation 01 CD2
Used drive  : ASUS    DRW-1814BLT   Adapter: 3  ID: 1
Read mode               : Secure
Utilize accurate stream : Yes
Defeat audio cache      : Yes
Make use of C2 pointers : No
Read offset correction                      : 6
Overread into Lead-In and Lead-Out          : No
Fill up missing offset samples with silence : Yes
Delete leading and trailing silent blocks   : No
Null samples used in CRC calculations       : Yes
Used interface                              : Native Win32 interface for Win NT & 2000
Gap handling                                : Appended to previous track
Used output format              : User Defined Encoder
Selected bitrate                : 1024 kBit/s
Quality                         : High
Add ID3 tag                     : No
Command line compressor         : C:\Program Files (x86)\Exact Audio Copy\FLAC\FLAC.EXE
Additional command line options : -6 -V -T "ARTIST=%a" -T "TITLE=%t" -T "ALBUM=%g" -T "DATE=%y" -T "TRACKNUMBER=%n" -T "GENRE=%m" -T "COMMENT=%e" %s -o %d
TOC of the extracted CD
     Track |   Start  |  Length  | Start sector | End sector
    ---------------------------------------------------------
        1  |  0:00.00 |  6:27.04 |         0    |    29028
        2  |  6:27.04 |  4:58.74 |     29029    |    51452
        3  | 11:26.03 |  4:43.61 |     51453    |    72738
        4  | 16:09.64 |  5:36.66 |     72739    |    98004
        5  | 21:46.55 |  3:51.00 |     98005    |   115329
        6  | 25:37.55 |  6:36.47 |    115330    |   145076
        7  | 32:14.27 |  7:39.09 |    145077    |   179510
        8  | 39:53.36 |  7:00.36 |    179511    |   211046
        9  | 46:53.72 |  5:40.05 |    211047    |   236551
       10  | 52:34.02 |  3:31.36 |    236552    |   252412
       11  | 56:05.38 |  2:45.57 |    252413    |   264844
       12  | 58:51.20 |  2:03.02 |    264845    |   274071
       13  | 60:54.22 |  2:58.06 |    274072    |   287427
Track  1
     Filename C:\Temp\01. VNV Nation - Chrome (Modcom '27,2 Mhz' Remix).wav
     Pre-gap length  0:00:02.00
     Peak level 89.6 %
     Track quality 100.0 %
     Test CRC 0894FD84
     Copy CRC 0894FD84
     Accurately ripped (confidence 32)  [556A9844]
     Copy OK
Track  2
     Filename C:\Temp\02. VNV Nation - Chrome (SITD Remix).wav
     Peak level 91.8 %
     Track quality 100.0 %
     Test CRC FEDB4C13
     Copy CRC FEDB4C13
     Accurately ripped (confidence 32)  [894402C1]
     Copy OK
Track  3
     Filename C:\Temp\03. VNV Nation - Chrome (Apoptygma Berzerk Remix).wav
     Peak level 98.4 %
     Track quality 100.0 %
     Test CRC BD3EE3B6
     Copy CRC BD3EE3B6
     Accurately ripped (confidence 32)  [248BD57B]
     Copy OK
Track  4
     Filename C:\Temp\04. VNV Nation - Interceptor (VNV's 'ABM' Mix).wav
     Peak level 98.5 %
     Track quality 100.0 %
     Test CRC 3C2CD825
     Copy CRC 3C2CD825
     Accurately ripped (confidence 32)  [C0DF2CDB]
     Copy OK
Track  5
     Filename C:\Temp\05. VNV Nation - Nemesis (S.A.M. Remix).wav
     Peak level 98.3 %
     Track quality 100.0 %
     Test CRC 1EE8ABB4
     Copy CRC 1EE8ABB4
     Accurately ripped (confidence 32)  [8EA92F2C]
     Copy OK
Track  6
     Filename C:\Temp\06. VNV Nation - Carry You (Frozen Plasma Remix).wav
     Peak level 97.7 %
     Track quality 100.0 %
     Test CRC 2BE52E9D
     Copy CRC 2BE52E9D
     Accurately ripped (confidence 32)  [846B56F8]
     Copy OK
Track  7
     Filename C:\Temp\07. VNV Nation - Still Waters.wav
     Peak level 99.1 %
     Track quality 100.0 %
     Test CRC 3FEB3539
     Copy CRC 3FEB3539
     Accurately ripped (confidence 32)  [4458F7CF]
     Copy OK
Track  8
     Filename C:\Temp\08. VNV Nation - Suffer.wav
     Pre-gap length  0:00:02.50
     Peak level 99.7 %
     Track quality 100.0 %
     Test CRC ABC0BC0D
     Copy CRC ABC0BC0D
     Accurately ripped (confidence 32)  [B2CF31E8]
     Copy OK
Track  9
     Filename C:\Temp\09. VNV Nation - Precipice.wav
     Peak level 99.3 %
     Track quality 100.0 %
     Test CRC F14237F7
     Copy CRC F14237F7
     Accurately ripped (confidence 29)  [DD96C3B9]
     Copy OK
Track 10
     Filename C:\Temp\10. VNV Nation - As It Fades (VNV's '2nd MVMT').wav
     Peak level 98.1 %
     Track quality 100.0 %
     Test CRC 17AE2352
     Copy CRC 17AE2352
     Accurately ripped (confidence 31)  [8D807D67]
     Copy OK
Track 11
     Filename C:\Temp\11. VNV Nation - Gene Generation - 'Main Theme'.wav
     Peak level 98.7 %
     Track quality 100.0 %
     Test CRC C86B02E8
     Copy CRC C86B02E8
     Accurately ripped (confidence 32)  [2122FDB3]
     Copy OK
Track 12
     Filename C:\Temp\12. VNV Nation - Gene Generation - 'Mayhem'.wav
     Peak level 93.1 %
     Track quality 100.0 %
     Test CRC 059729A8
     Copy CRC 059729A8
     Accurately ripped (confidence 32)  [6451DD73]
     Copy OK
Track 13
     Filename C:\Temp\13. VNV Nation - Gene Generation - 'The Lair'.wav
     Peak level 98.3 %
     Track quality 100.0 %
     Test CRC CE7D185F
     Copy CRC CE7D185F
     Accurately ripped (confidence 31)  [FA15BCDD]
     Copy OK
All tracks accurately ripped
No errors occurred
End of status report
Код:
REM DATE 2009
REM DISCID AE10230C
REM COMMENT "ExactAudioCopy v0.99pb5"
PERFORMER "VNV Nation"
TITLE "Reformation 01"
FILE "01. VNV Nation - Joy (Live).wav" WAVE
  TRACK 01 AUDIO
    TITLE "Joy (Live)"
    PERFORMER "VNV Nation"
    INDEX 01 00:00:00
FILE "02. VNV Nation - Chrome (Live).wav" WAVE
  TRACK 02 AUDIO
    TITLE "Chrome (Live)"
    PERFORMER "VNV Nation"
    INDEX 01 00:00:00
FILE "03. VNV Nation - Testament (Live).wav" WAVE
  TRACK 03 AUDIO
    TITLE "Testament (Live)"
    PERFORMER "VNV Nation"
    INDEX 01 00:00:00
FILE "04. VNV Nation - Nemesis (Live).wav" WAVE
  TRACK 04 AUDIO
    TITLE "Nemesis (Live)"
    PERFORMER "VNV Nation"
    INDEX 01 00:00:00
FILE "05. VNV Nation - Endless Skies (Live).wav" WAVE
  TRACK 05 AUDIO
    TITLE "Endless Skies (Live)"
    PERFORMER "VNV Nation"
    INDEX 01 00:00:00
FILE "06. VNV Nation - Farthest Star (Live).wav" WAVE
  TRACK 06 AUDIO
    TITLE "Farthest Star (Live)"
    PERFORMER "VNV Nation"
    INDEX 01 00:00:00
FILE "07. VNV Nation - Procession (Live).wav" WAVE
  TRACK 07 AUDIO
    TITLE "Procession (Live)"
    PERFORMER "VNV Nation"
    INDEX 01 00:00:00
FILE "08. VNV Nation - Entropy (Live).wav" WAVE
  TRACK 08 AUDIO
    TITLE "Entropy (Live)"
    PERFORMER "VNV Nation"
    INDEX 01 00:00:00
FILE "09. VNV Nation - Illusion (Live).wav" WAVE
  TRACK 09 AUDIO
    TITLE "Illusion (Live)"
    PERFORMER "VNV Nation"
    INDEX 01 00:00:00
FILE "10. VNV Nation - Arena (Live).wav" WAVE
  TRACK 10 AUDIO
    TITLE "Arena (Live)"
    PERFORMER "VNV Nation"
    INDEX 01 00:00:00
FILE "11. VNV Nation - Honour 2003 (Live).wav" WAVE
  TRACK 11 AUDIO
    TITLE "Honour 2003 (Live)"
    PERFORMER "VNV Nation"
    INDEX 01 00:00:00
FILE "12. VNV Nation - Perpetual (Live).wav" WAVE
  TRACK 12 AUDIO
    TITLE "Perpetual (Live)"
    PERFORMER "VNV Nation"
    INDEX 01 00:00:00
REM DATE 2009
REM DISCID D50EF80D
REM COMMENT "ExactAudioCopy v0.99pb5"
PERFORMER "VNV Nation"
TITLE "Reformation 01"
FILE "01. VNV Nation - Chrome (Modcom 27.2 MHz Remix).wav" WAVE
  TRACK 01 AUDIO
    TITLE "Chrome (Modcom 27.2 MHz Remix)"
    PERFORMER "VNV Nation"
    INDEX 01 00:00:00
FILE "02. VNV Nation - Chrome (SITD Remix).wav" WAVE
  TRACK 02 AUDIO
    TITLE "Chrome (SITD Remix)"
    PERFORMER "VNV Nation"
    INDEX 01 00:00:00
FILE "03. VNV Nation - Chrome (Apoptygma Berzerk Remix).wav" WAVE
  TRACK 03 AUDIO
    TITLE "Chrome (Apoptygma Berzerk Remix)"
    PERFORMER "VNV Nation"
    INDEX 01 00:00:00
FILE "04. VNV Nation - Interceptor (VNV's ABM Mix).wav" WAVE
  TRACK 04 AUDIO
    TITLE "Interceptor (VNV's ABM Mix)"
    PERFORMER "VNV Nation"
    INDEX 01 00:00:00
FILE "05. VNV Nation - Nemesis (S.A.M. Remix).wav" WAVE
  TRACK 05 AUDIO
    TITLE "Nemesis (S.A.M. Remix)"
    PERFORMER "VNV Nation"
    INDEX 01 00:00:00
FILE "06. VNV Nation - Carry You (Frozen Plasma Remix).wav" WAVE
  TRACK 06 AUDIO
    TITLE "Carry You (Frozen Plasma Remix)"
    PERFORMER "VNV Nation"
    INDEX 01 00:00:00
FILE "07. VNV Nation - Still Waters.wav" WAVE
  TRACK 07 AUDIO
    TITLE "Still Waters"
    PERFORMER "VNV Nation"
    INDEX 01 00:00:00
FILE "08. VNV Nation - Suffer.wav" WAVE
  TRACK 08 AUDIO
    TITLE "Suffer"
    PERFORMER "VNV Nation"
    INDEX 00 00:00:00
    INDEX 01 00:02:38
FILE "09. VNV Nation - Precipice.wav" WAVE
  TRACK 09 AUDIO
    TITLE "Precipice"
    PERFORMER "VNV Nation"
    INDEX 01 00:00:00
FILE "10. VNV Nation - As It Fades (Second Movement).wav" WAVE
  TRACK 10 AUDIO
    TITLE "As It Fades (VNV's Second Movement)"
    PERFORMER "VNV Nation"
    INDEX 01 00:00:00
FILE "11. VNV Nation - Main Theme.wav" WAVE
  TRACK 11 AUDIO
    TITLE "Main Theme"
    PERFORMER "VNV Nation"
    INDEX 01 00:00:00
FILE "12. VNV Nation - Mayhem.wav" WAVE
  TRACK 12 AUDIO
    TITLE "Mayhem"
    PERFORMER "VNV Nation"
    INDEX 01 00:00:00
FILE "13. VNV Nation - The Lair.wav" WAVE
  TRACK 13 AUDIO
    TITLE "The Lair"
    PERFORMER "VNV Nation"
    INDEX 01 00:00:00
Код:
AUDIOCHECKER v2.0 beta (build 457) - by Dester - opdester@freemail.hu
~~~~~~~~~~~~~~~~~~~~~~~~~~~~~~~~~~
-=== DO NOT EDIT THIS FILE! ===-
Path: ...\VNV Nation - Reformation 01 - CD01
01 -=- 01. VNV Nation - Joy (Live).flac -=- CDDA (86%)
02 -=- 02. VNV Nation - Chrome (Live).flac -=- CDDA (100%)
03 -=- 03. VNV Nation - Testament (Live).flac -=- CDDA (100%)
04 -=- 04. VNV Nation - Nemesis (Live).flac -=- CDDA (100%)
05 -=- 05. VNV Nation - Endless Skies (Live).flac -=- MPEG (99%)
06 -=- 06. VNV Nation - Farthest Star (Live).flac -=- CDDA (100%)
07 -=- 07. VNV Nation - Procession (Live).flac -=- CDDA (100%)
08 -=- 08. VNV Nation - Entropy (Live).flac -=- CDDA (100%)
09 -=- 09. VNV Nation - Illusion (Live).flac -=- CDDA (100%)
10 -=- 10. VNV Nation - Arena (Live).flac -=- CDDA (100%)
11 -=- 11. VNV Nation - Honour 2003 (Live).flac -=- CDDA (100%)
12 -=- 12. VNV Nation - Perpetual (Live).flac -=- CDDA (100%)
Summary 90.58% CDDA
203921380
AUDIOCHECKER v2.0 beta (build 457) - by Dester - opdester@freemail.hu
~~~~~~~~~~~~~~~~~~~~~~~~~~~~~~~~~~
-=== DO NOT EDIT THIS FILE! ===-
Path: ...\VNV Nation - Reformation 01 - CD02
01 -=- 01. VNV Nation - Chrome (27.2 MHz Remix).flac -=- CDDA (100%)
02 -=- 02. VNV Nation - Chrome (SITD Remix).flac -=- CDDA (99%)
03 -=- 03. VNV Nation - Chrome (Apoptygma Berzerk Remix).flac -=- CDDA (100%)
04 -=- 04. VNV Nation - Interceptor (ABM Mix).flac -=- CDDA (99%)
05 -=- 05. VNV Nation - Nemesis (S.A.M. Remix).flac -=- CDDA (99%)
06 -=- 06. VNV Nation - Carry You (Frozen Plasma Remix).flac -=- CDDA (100%)
07 -=- 07. VNV Nation - Still Waters.flac -=- CDDA (100%)
08 -=- 08. VNV Nation - Suffer.flac -=- CDDA (100%)
09 -=- 09. VNV Nation - Precipice.flac -=- CDDA (100%)
10 -=- 10. VNV Nation - As It Fades (Second Movement).flac -=- CDDA (99%)
11 -=- 11. VNV Nation - Main Theme.flac -=- CDDA (99%)
12 -=- 12. VNV Nation - Mayhem.flac -=- CDDA (100%)
13 -=- 13. VNV Nation - The Lair.flac -=- CDDA (100%)
Summary 99.62% CDDA
249111636
http://www.discogs.com/VNV-Nation-Reformation-01/release/1770899 (manually put in URL / вручную положить в URL)
Правила, инструкции, FAQ!!!
Торрент  Добавлен [26 июн 2020, 20:09] Скачать торрент Магнет ссылка
Скачать торрент
[ Размер 21.49 КБ / Просмотров 9 ]

Статус
Проверен 
 
Размер  909.37 МБ
Приватный: Нет (DHT включён)
.torrent скачан  0
 


     Отправить личное сообщение
   
Страница 1 из 1
Показать сообщения за:  Поле сортировки  
Начать новую тему Ответить на тему


Сейчас этот форум просматривают: нет зарегистрированных пользователей и гости: 0


Вы не можете начинать темы
Вы не можете отвечать на сообщения
Вы не можете редактировать свои сообщения
Вы не можете удалять свои сообщения
Вы не можете добавлять вложения

Перейти:  
cron