Начать новую тему Ответить на тему
Статистика раздачи
Размер: 219.97 МБ | Добавлен: 26 июн 2020, 19:49 | Скачали: 0
Сидеров: 0  [0 байт/сек]    Личеров: 0  [0 байт/сек]
Пред. тема | След. тема 

Автор
Сообщение

СообщениеДобавлено: 26 июн 2020, 19:49 

Ответить с цитатой 

VNV Nation - Honour 2003
Жанр: Futurepop
Носитель: CD
Страна-производитель диска: Germany
Год издания: 2003
Издатель (лейбл): Anachron Sounds
Номер по каталогу: SOUND-1
Страна: Germany
Аудиокодек: FLAC (*.flac)
Тип рипа: image+.cue
Битрейт аудио: lossless
Продолжительность: 00:26:01
Источник (релизер): Rekhyt
Наличие сканов в содержимом раздачи: нет
Треклист:
1. Honour 2003 (8:08)
2. Fearless (Live) (6:33)
3. Legion (Live) (4:45)
4. Secondskin (Spoken) (6:35)
Код:
Exact Audio Copy V1.0 beta 3 from 29. August 2011
EAC extraction logfile from 31. August 2012, 14:03
VNV Nation / Honour 2003
Used drive  : ATAPI   iHAS424   B   Adapter: 3  ID: 0
Read mode               : Secure
Utilize accurate stream : Yes
Defeat audio cache      : Yes
Make use of C2 pointers : No
Read offset correction                      : 6
Overread into Lead-In and Lead-Out          : No
Fill up missing offset samples with silence : Yes
Delete leading and trailing silent blocks   : No
Null samples used in CRC calculations       : Yes
Used interface                              : Native Win32 interface for Win NT & 2000
Used output format              : User Defined Encoder
Selected bitrate                : 1024 kBit/s
Quality                         : High
Add ID3 tag                     : No
Command line compressor         : C:\Program Files (x86)\Exact Audio Copy\FLAC\FLAC.EXE
Additional command line options : -V -8 -T "Date=%year%" -T "Genre=%genre%" %source%
TOC of the extracted CD
     Track |   Start  |  Length  | Start sector | End sector
    ---------------------------------------------------------
        1  |  0:00.00 |  8:07.52 |         0    |    36576
        2  |  8:07.52 |  6:33.28 |     36577    |    66079
        3  | 14:41.05 |  4:45.15 |     66080    |    87469
        4  | 19:26.20 |  6:35.27 |     87470    |   117121
        5  | 28:33.47 |  5:36.37 |    128522    |   153758
Range status and errors
Selected range
     Filename E:\Downloads\VNV Nation\VNV Nation - Honour 2003\VNV Nation - Honour 2003.wav
     Peak level 99.8 %
     Extraction speed 3.7 X
     Range quality 100.0 %
     Test CRC 3A227D3E
     Copy CRC 3A227D3E
     Copy OK
No errors occurred
AccurateRip summary
Track  1  accurately ripped (confidence 4)  [A2EA08D2]  (AR v2)
Track  2  accurately ripped (confidence 4)  [64E3A5EF]  (AR v2)
Track  3  accurately ripped (confidence 4)  [1765957F]  (AR v2)
Track  4  accurately ripped (confidence 4)  [4082F29A]  (AR v2)
All tracks accurately ripped
End of status report
==== Log checksum 2362F32B5F98D71586CEBA0D9A92192293CB62FFBCEF4934C3F8CB169F5BDF5D ====
Код:
REM DATE 2003
REM DISCID 48080205
REM COMMENT "ExactAudioCopy v1.0b3"
PERFORMER "VNV Nation"
TITLE "Honour 2003"
FILE "VNV Nation - Honour 2003.flac" WAVE
  TRACK 01 AUDIO
    TITLE "Honour 2003"
    PERFORMER "VNV Nation"
    INDEX 01 00:00:00
  TRACK 02 AUDIO
    TITLE "Fearless (Live)"
    PERFORMER "VNV Nation"
    INDEX 01 08:07:52
  TRACK 03 AUDIO
    TITLE "Legion (Live)"
    PERFORMER "VNV Nation"
    INDEX 01 14:41:05
  TRACK 04 AUDIO
    TITLE "Secondskin (Spoken)"
    PERFORMER "VNV Nation"
    INDEX 01 19:26:20
Код:
AUDIOCHECKER v2.0 beta (build 457) - by Dester - opdester@freemail.hu
~~~~~~~~~~~~~~~~~~~~~~~~~~~~~~~~~~
-=== DO NOT EDIT THIS FILE! ===-
Path: ...\VNV Nation - Honour 2003
1 -=- VNV Nation - Honour 2003.flac -=- CDDA (100%)
222939060
http://www.discogs.com/VNV-Nation-Honour-2003/release/157730 (manually put in URL / вручную положить в URL)
Правила, инструкции, FAQ!!!
Торрент  Добавлен [26 июн 2020, 19:49] Скачать торрент Магнет ссылка
Скачать торрент
[ Размер 18.08 КБ / Просмотров 8 ]

Статус
Проверен 
 
Размер  219.97 МБ
Приватный: Нет (DHT включён)
.torrent скачан  0
 


     Отправить личное сообщение
   
Страница 1 из 1
Показать сообщения за:  Поле сортировки  
Начать новую тему Ответить на тему


Сейчас этот форум просматривают: нет зарегистрированных пользователей и гости: 0


Вы не можете начинать темы
Вы не можете отвечать на сообщения
Вы не можете редактировать свои сообщения
Вы не можете удалять свои сообщения
Вы не можете добавлять вложения

Перейти:  
cron