Начать новую тему Ответить на тему
Статистика раздачи
Размер: 358.07 МБ | Добавлен: 26 июн 2020, 21:12 | Скачали: 0
Сидеров: 0  [0 байт/сек]    Личеров: 0  [0 байт/сек]
Пред. тема | След. тема 

Автор
Сообщение

СообщениеДобавлено: 26 июн 2020, 21:12 

Ответить с цитатой 

Xenturion Prime - Humanity Plus





• Жанр: Futurepop | Synthpop | EBM
• Носитель: WEB
• Год издания: 2017
• Издатель (лейбл) Progress Productions
• Страна исполнителя (группы): Norway
• Аудиокодек: FLAC (*.flac)
• Тип рипа: tracks
• Продолжительность: 00:52:24
• Источник (релизер): NTDMMANIAC ®
• WEB релиз: bandcamp
• Наличие сканов: front

01 - Artifact I (00:04:26)
02 - Propulsion (00:04:58)
03 - Milestone (00:04:52)
04 - Artifact II (00:02:13)
05 - Bulldozer (00:04:13)
06 - Revoltage (00:05:16)
07 - Artifact III (00:01:33)
08 - Vimana (00:06:24)
09 - Departed (00:04:16)
10 - Artifact IV (00:03:00)
11 - Neoexogenesis (00:05:45)
12 - Traveler (00:05:23)

Код:
foobar2000 1.2.5 / Замер динамического диапазона (DR) 1.1.1
Дата отчёта:  2018-07-14 20:00:03
--------------------------------------------------------------------------------
Анализ:   Xenturion Prime / Humanity Plus
--------------------------------------------------------------------------------
DR         Пики         RMS           Продолжительность трека
--------------------------------------------------------------------------------
DR7       -0.09 дБ    -8.63 дБ      4:27 01-Artifact I
DR6       -0.09 дБ    -7.79 дБ      4:58 02-Propulsion
DR6       -0.09 дБ    -8.01 дБ      4:52 03-Milestone
DR7       -0.40 дБ   -10.63 дБ      2:14 04-Artifact II
DR7       -0.09 дБ    -8.52 дБ      4:13 05-Bulldozer
DR6       -0.09 дБ    -7.41 дБ      5:17 06-Revoltage
DR6       -0.24 дБ    -8.97 дБ      1:33 07-Artifact III
DR7       -0.09 дБ    -9.01 дБ      6:25 08-Vimana
DR7       -0.09 дБ    -9.70 дБ      4:16 09-Departed
DR7       -0.54 дБ    -9.00 дБ      3:00 10-Artifact IV
DR6       -0.09 дБ    -7.36 дБ      5:46 11-Neoexogenesis
DR6       -0.09 дБ    -8.57 дБ      5:23 12-Traveler
--------------------------------------------------------------------------------
Количество треков: 12
Реальные значения DR: DR6
Частота:  44100 Гц
Каналов:  2
Разрядность:   16
Битрейт:  904 кбит/с
Кодек:   FLAC
================================================================================

Код:
-----------------------
DON'T MODIFY THIS FILE
-----------------------
PERFORMER: auCDtect Task Manager, ver. 1.6.0 RC1 build 1.6.0.1
Copyright (c) 2008-2010 y-soft. All rights reserved
[url=http://y-soft.org]http://y-soft.org[/url]
ANALYZER: auCDtect: CD records authenticity detector, version 0.8.2
Copyright (c) 2004 Oleg Berngardt. All rights reserved.
Copyright (c) 2004 Alexander Djourik. All rights reserved.
FILE: 12 - Traveler.flac
  Size: 36844915 Hash: 73F9EF1BE1E6F466BCA5D4D0E321868D Accuracy: -m0
  Conclusion: CDDA 100%
  Signature: B328A4ADE0163403C1D6DC9C59AC158C344D1EBA
FILE: 11 - Neoexogenesis.flac
  Size: 45735697 Hash: 10C3B0E7E9CB6AAA01B7196905B289B9 Accuracy: -m0
  Conclusion: CDDA 100%
  Signature: 7BB16A6DF8AF4382C4D9788328D78DAA3F8AACC1
FILE: 10 - Artifact IV.flac
  Size: 16658918 Hash: ACD2D9E0E1E389AED9FE52AB4E679CF5 Accuracy: -m0
  Conclusion: CDDA 99%
  Signature: 2ADDCFC846B12D09BB22DEE972E2C9E3B04AE1E0
FILE: 09 - Departed.flac
  Size: 26064276 Hash: A7DAB69EC512DF5E85C5905471DEA2B2 Accuracy: -m0
  Conclusion: CDDA 100%
  Signature: 3BECECBD0AA27BA080B4A4C15DA21BC3FD86A6D7
FILE: 08 - Vimana.flac
  Size: 48908932 Hash: 23F541DEE2AAF4A5FCDF3865E5920B57 Accuracy: -m0
  Conclusion: CDDA 99%
  Signature: 4E6407F0C21FD701FA98A1D56ECA08358E199E25
FILE: 07 - Artifact III.flac
  Size: 10557842 Hash: 122721D45B3B97C5844D6AA02E3C8B88 Accuracy: -m0
  Conclusion: CDDA 100%
  Signature: ACD1CABC9A2E55E41FC412A5061860CA7F8AE4B4
FILE: 06 - Revoltage.flac
  Size: 39773879 Hash: 09853C6DFE48BAB074E16A4B367FDD35 Accuracy: -m0
  Conclusion: CDDA 100%
  Signature: C8ADABA95B5D957928B7A26931C54E70EC1E863F
FILE: 05 - Bulldozer.flac
  Size: 30739887 Hash: 8D1EAA5BC1A5FF1301F295EDD5E59442 Accuracy: -m0
  Conclusion: CDDA 100%
  Signature: 6F670BD6011FF01F7CDE565B1147BC4EF5B0065A
FILE: 04 - Artifact II.flac
  Size: 14430770 Hash: 5D246DA8E80A4EFC689FC3FFC45918C6 Accuracy: -m0
  Conclusion: CDDA 100%
  Signature: 6756C8365E9F945AA1273A6CD69E09042ED6C05E
FILE: 03 - Milestone.flac
  Size: 36442120 Hash: 02FF5C983709F28C968C20147680FE12 Accuracy: -m0
  Conclusion: CDDA 100%
  Signature: A6D538A30A19108A939209B035E32A769C9AFE98
FILE: 02 - Propulsion.flac
  Size: 38259504 Hash: 0C2C74E35E8590512DC551E09E991F91 Accuracy: -m0
  Conclusion: CDDA 99%
  Signature: A964ACB37112F8DAFD452DC61A26C701C8928874
FILE: 01 - Artifact I.flac
  Size: 30715328 Hash: 0AE1E81E7F55A1A9D1EFBF3C9CADBEC5 Accuracy: -m0
  Conclusion: CDDA 100%
  Signature: D93A592DBC94A397549179C84EE67FD756AB7457


Правила, инструкции, FAQ!!!
Торрент  Добавлен [26 июн 2020, 21:12] Скачать торрент Магнет ссылка
Скачать торрент
[ Размер 15.09 КБ / Просмотров 5 ]

Статус
Проверен 
 
Размер  358.07 МБ
Приватный: Нет (DHT включён)
.torrent скачан  0
 


     Отправить личное сообщение
   
Страница 1 из 1
Показать сообщения за:  Поле сортировки  
Начать новую тему Ответить на тему


Сейчас этот форум просматривают: нет зарегистрированных пользователей и гости: 0


Вы не можете начинать темы
Вы не можете отвечать на сообщения
Вы не можете редактировать свои сообщения
Вы не можете удалять свои сообщения
Вы не можете добавлять вложения

Перейти:  
cron