Начать новую тему Ответить на тему
Статистика раздачи
Размер: 301.34 МБ | Добавлен: 26 июн 2020, 18:00 | Скачали: 0
Сидеров: 0  [0 байт/сек]    Личеров: 0  [0 байт/сек]
Пред. тема | След. тема 

Автор
Сообщение

СообщениеДобавлено: 26 июн 2020, 18:00 

Ответить с цитатой 

Head-Less / Imperfect Mensch
Жанр: Futurepop
Страна-производитель диска: Germany
Год издания диска: 2011
Издатель (лейбл): Danse Macabre
Номер по каталогу: None
Страна: Germany
Аудиокодек: FLAC (*.flac)
Тип рипа: image+.cue
Битрейт аудио: lossless
Продолжительность: 0:42:51.08
Источник (релизер): CD из личной коллекции.
Наличие сканов в содержимом раздачи: да
Треклист:
01. Contrapunkt 2:10
02. Punish Your Head 3:54
03. Burning 4:54
04. We Stand In Hope 5:07
05. Dialoque 1:12
06. Als Ich Fortging 4:33
07. Forgiving 5:21
08. You 5:08
09. Down Memory Lane 4:17
10. The Deep Insight 6:02
Discogs
Код:
Exact Audio Copy V0.99 prebeta 5 from 4. May 2009
Отчёт EAC об извлечении, выполненном 6. октября 2011, 19:50
Head-Less / Imperfect Mensch
Дисковод: TSSTcorpCDDVDW TS-L632H   Adapter: 0  ID: 0
Режим чтения                 : Достоверность
Использование точного потока : Да
Отключение кэша аудио        : Да
Использование указателей C2  : Нет
Коррекция смещения при чтении                     : 6
Способность читать области Lead-in и Lead-out     : Нет
Заполнение пропущенных сэмплов тишиной            : Да
Удаление блоков с тишиной в начале и конце        : Нет
При вычислениях CRC использовались нулевые сэмплы : Да
Интерфейс                                         : Встроенный Win32-интерфейс для Win NT/2000
Выходной формат          : Пользовательский кодировщик
Выбранный битрейт        : 1024 kBit/s
Качество                 : Высокий
Добавление ID3-тэга      : Нет
Утилита сжатия           : C:\Program Files\Exact Audio Copy\FLAC\FLAC.EXE
Дополнительные параметры : -6 -V -T "ARTIST=%a" -T "TITLE=%t" -T "ALBUM=%g" -T "DATE=%y" -T "TRACKNUMBER=%n" -T "GENRE=%m" -T "COMMENT=%e" %s -o %d
TOC извлечённого CD
     Трек |   Старт  | Длительность | Начальный сектор | Конечный сектор
    ---------------------------------------------------------------------
       1  |  0:00.00 |    2:08.04   |           0      |       9603
       2  |  2:08.04 |    3:57.34   |        9604      |      27412
       3  |  6:05.38 |    4:55.19   |       27413      |      49556
       4  | 11:00.57 |    5:08.50   |       49557      |      72706
       5  | 16:09.32 |    1:13.66   |       72707      |      78247
       6  | 17:23.23 |    4:35.19   |       78248      |      98891
       7  | 21:58.42 |    5:23.15   |       98892      |     123131
       8  | 27:21.57 |    5:08.45   |      123132      |     146276
       9  | 32:30.27 |    4:19.21   |      146277      |     165722
      10  | 36:49.48 |    6:01.35   |      165723      |     192832
Характеристики диапазона извлечения и сообщения об ошибках
Выбранный диапазон
     Имя файла C:\Users\Алексей\Desktop\iPOD\Head-Less - Imperfect Mensch.wav
     Пиковый уровень 100.0 %
     Качество диапазона 100.0 %
     CRC теста F806E926
     CRC копии F806E926
     Копирование... OK
Ошибок не произошло
AccurateRip: сводка
Трек  1  нет в базе данных
Трек  2  нет в базе данных
Трек  3  нет в базе данных
Трек  4  нет в базе данных
Трек  5  нет в базе данных
Трек  6  нет в базе данных
Трек  7  нет в базе данных
Трек  8  нет в базе данных
Трек  9  нет в базе данных
Трек 10  нет в базе данных
Ни одного трека нет в базе AccurateRip
Конец отчёта
Код:
REM GENRE "Future Pop"
REM DATE 2011
REM DISCID 6A0A0B0A
REM COMMENT "ExactAudioCopy v0.99pb5"
PERFORMER "Head-Less"
TITLE "Imperfect Mensch"
FILE "Head-Less - Imperfect Mensch.flac" WAVE
  TRACK 01 AUDIO
    TITLE "Contrapunkt"
    PERFORMER "Head-Less"
    INDEX 01 00:00:00
  TRACK 02 AUDIO
    TITLE "Punish Your Head"
    PERFORMER "Head-Less"
    INDEX 01 02:08:04
  TRACK 03 AUDIO
    TITLE "Burning"
    PERFORMER "Head-Less"
    INDEX 01 06:05:38
  TRACK 04 AUDIO
    TITLE "We Stand In Hope"
    PERFORMER "Head-Less"
    INDEX 01 11:00:57
  TRACK 05 AUDIO
    TITLE "Dialoque"
    PERFORMER "Head-Less"
    INDEX 01 16:09:32
  TRACK 06 AUDIO
    TITLE "Als Ich Fortging"
    PERFORMER "Head-Less"
    INDEX 01 17:23:23
  TRACK 07 AUDIO
    TITLE "Forgiving"
    PERFORMER "Head-Less"
    INDEX 01 21:58:42
  TRACK 08 AUDIO
    TITLE "You"
    PERFORMER "Head-Less"
    INDEX 01 27:21:57
  TRACK 09 AUDIO
    TITLE "Down Memory Lane"
    PERFORMER "Head-Less"
    INDEX 01 32:30:27
  TRACK 10 AUDIO
    TITLE "The Deep Insight"
    PERFORMER "Head-Less"
    INDEX 01 36:49:48
Код:
[url=https://fastpic.ru/view/31/2011/1101/899eba2fd6db3074fff4cdad3959726e.jpg.html][img]http://i31.fastpic.ru/thumb/2011/1101/6e/899eba2fd6db3074fff4cdad3959726e.jpeg[/img][/url][url=https://fastpic.ru/view/29/2011/1101/90d6ce2eab1fa360b31b7dc5a257d03a.jpg.html][img]http://i29.fastpic.ru/thumb/2011/1101/3a/90d6ce2eab1fa360b31b7dc5a257d03a.jpeg[/img][/url][url=https://fastpic.ru/view/28/2011/1101/118a907f08cedff8bb5e3f18595705b1.jpg.html][img]http://i28.fastpic.ru/thumb/2011/1101/b1/118a907f08cedff8bb5e3f18595705b1.jpeg[/img][/url][url=https://fastpic.ru/view/29/2011/1101/6583d9033e03e4480e35c68decdcb86c.jpg.html][img]http://i29.fastpic.ru/thumb/2011/1101/6c/6583d9033e03e4480e35c68decdcb86c.jpeg[/img][/url]
Выражаю благодарность kergarn`у за HQ scans!
Правила, инструкции, FAQ!!!
Торрент  Добавлен [26 июн 2020, 18:00] Скачать торрент Магнет ссылка
Скачать торрент
[ Размер 13.02 КБ / Просмотров 11 ]

Статус
Проверен 
 
Размер  301.34 МБ
Приватный: Нет (DHT включён)
.torrent скачан  0
 


     Отправить личное сообщение
   
Страница 1 из 1
Показать сообщения за:  Поле сортировки  
Начать новую тему Ответить на тему


Сейчас этот форум просматривают: нет зарегистрированных пользователей и гости: 0


Вы не можете начинать темы
Вы не можете отвечать на сообщения
Вы не можете редактировать свои сообщения
Вы не можете удалять свои сообщения
Вы не можете добавлять вложения

Перейти:  
cron