Начать новую тему Ответить на тему
Статистика раздачи
Размер: 175 МБ | Добавлен: 26 июн 2020, 19:48 | Скачали: 0
Сидеров: 0  [0 байт/сек]    Личеров: 0  [0 байт/сек]
Пред. тема | След. тема 

Автор
Сообщение

СообщениеДобавлено: 26 июн 2020, 19:48 

Ответить с цитатой 

VNV Nation - Genesis.2
Жанр: Futurepop / EBM
Год выпуска диска: 2001
Производитель диска: Germany
Аудио кодек: APE
Тип рипа: image+.cue
Битрейт аудио: lossless
Продолжительность: 25:08
Трэклист:
1 Genesis (Single Version) (5:47)
2 Genesis (C92 Version) (6:30)
3 Left Behind (4:42)
4 Genesis (Ivory Frequency Version) (8:06) Remix - Ivory Frequency
Доп. информация: Dependent / Mindbase; MIND30
Код:
Exact Audio Copy V0.99 prebeta 3 from 28. July 2007
Отчёт EAC об извлечении, выполненном 4. ноября 2008, 23:57
VNV Nation / Genesis.2
Дисковод: PIONEER DVD-RW  DVR-215D   Adapter: 5  ID: 0
Режим чтения                 : Достоверность
Использование точного потока : Да
Отключение кэша аудио        : Да
Использование указателей C2  : Нет
Коррекция смещения при чтении                     : 48
Способность читать области Lead-in и Lead-out     : Нет
Заполнение пропущенных сэмплов тишиной            : Да
Удаление блоков с тишиной в начале и конце        : Нет
При вычислениях CRC использовались нулевые сэмплы : Нет
Интерфейс                                         : Встроенный Win32-интерфейс для Win NT/2000
Выходной формат : Внутренние WAV-операции
Формат сэмплов  : 44.100 Гц; 16 бит; стерео
TOC извлечённого CD
     Трек |   Старт  | Длительность | Начальный сектор | Конечный сектор
    ---------------------------------------------------------------------
       1  |  0:00.00 |    5:47.37   |           0      |      26061
       2  |  5:47.37 |    6:30.38   |       26062      |      55349
       3  | 12:18.00 |    4:42.50   |       55350      |      76549
       4  | 17:00.50 |    8:06.02   |       76550      |     113001
Характеристики диапазона извлечения и сообщения об ошибках
Выбранный диапазон
     Имя файла G:\MUSIC_TORRENT_OUT\VNV Nation - Genesis.2 CD5\CDImage.wav
     Пиковый уровень 99.9 %
     Качество диапазона 100.0 %
     CRC копии 1401713B
     Копирование... OK
Ошибок не произошло
Конец отчёта
Код:
AUDIOCHECKER v2.0 beta (build 457) - by Dester - opdester@freemail.hu
~~~~~~~~~~~~~~~~~~~~~~~~~~~~~~~~~~
-----------------------------------------------------------
Started at: среда, 05. 11. 2008. - 0:32.18
1 file found
1 -===- D:\tempo music\VNV Nation - Genesis.2 CD5\CDImage.ape
  Extracted successfully
  Conclusion: this track is CDDA with probability 100%
  Tempfile successfully deleted.
Finished at: среда, 05. 11. 2008. - 0:34.00 (operation time: 0:01.41)
Правила, инструкции, FAQ!!!
Торрент  Добавлен [26 июн 2020, 19:48] Скачать торрент Магнет ссылка
Скачать торрент
[ Размер 14.43 КБ / Просмотров 7 ]

Статус
Проверен 
 
Размер  175 МБ
Приватный: Нет (DHT включён)
.torrent скачан  0
 


     Отправить личное сообщение
   
Страница 1 из 1
Показать сообщения за:  Поле сортировки  
Начать новую тему Ответить на тему


Сейчас этот форум просматривают: нет зарегистрированных пользователей и гости: 0


Вы не можете начинать темы
Вы не можете отвечать на сообщения
Вы не можете редактировать свои сообщения
Вы не можете удалять свои сообщения
Вы не можете добавлять вложения

Перейти:  
cron