Начать новую тему Ответить на тему
Статистика раздачи
Размер: 173.12 МБ | Добавлен: 26 июн 2020, 19:48 | Скачали: 0
Сидеров: 0  [0 байт/сек]    Личеров: 0  [0 байт/сек]
Пред. тема | След. тема 

Автор
Сообщение

СообщениеДобавлено: 26 июн 2020, 19:48 

Ответить с цитатой 

VNV Nation - Genesis.1
Жанр: Futurepop / EBM
Год выпуска диска: 2001
Производитель диска: Germany
Аудио кодек: APE
Тип рипа: image+.cue
Битрейт аудио: lossless
Продолжительность: 24:04
Трэклист:
1 Genesis (Single Version) (5:45)
2 Weltfunk (Unreleased) (4:39)
3 Genesis (Icon Of Coil Version) (7:45) Remix - Icon Of Coil
4 Genesis (Thomas P. Heckmann Version) (5:53) Remix - Thomas P. Heckmann
Доп. информация: Dependent / Mindbase; MIND029
Код:
Exact Audio Copy V0.99 prebeta 3 from 28. July 2007
Отчёт EAC об извлечении, выполненном 5. ноября 2008, 0:03
VNV Nation / Genesis.1
Дисковод: PIONEER DVD-RW  DVR-215D   Adapter: 5  ID: 0
Режим чтения                 : Достоверность
Использование точного потока : Да
Отключение кэша аудио        : Да
Использование указателей C2  : Нет
Коррекция смещения при чтении                     : 48
Способность читать области Lead-in и Lead-out     : Нет
Заполнение пропущенных сэмплов тишиной            : Да
Удаление блоков с тишиной в начале и конце        : Нет
При вычислениях CRC использовались нулевые сэмплы : Нет
Интерфейс                                         : Встроенный Win32-интерфейс для Win NT/2000
Выходной формат : Внутренние WAV-операции
Формат сэмплов  : 44.100 Гц; 16 бит; стерео
TOC извлечённого CD
     Трек |   Старт  | Длительность | Начальный сектор | Конечный сектор
    ---------------------------------------------------------------------
       1  |  0:00.00 |    5:45.29   |           0      |      25903
       2  |  5:45.29 |    4:38.70   |       25904      |      46823
       3  | 10:24.24 |    7:44.57   |       46824      |      81680
       4  | 18:09.06 |    5:53.38   |       81681      |     108193
       5  | 26:34.44 |   47:23.31   |      119594      |     332849
Характеристики диапазона извлечения и сообщения об ошибках
Выбранный диапазон
     Имя файла G:\MUSIC_TORRENT_OUT\VNV Nation - Genesis.1 CD5\CDImage.wav
     Пиковый уровень 99.9 %
     Качество диапазона 100.0 %
     CRC копии 63B9BDFB
     Копирование... OK
Ошибок не произошло
Конец отчёта
Код:
AUDIOCHECKER v2.0 beta (build 457) - by Dester - opdester@freemail.hu
~~~~~~~~~~~~~~~~~~~~~~~~~~~~~~~~~~
-----------------------------------------------------------
Started at: среда, 05. 11. 2008. - 0:24.07
1 file found
1 -===- D:\tempo music\VNV Nation - Genesis.1 CD5\CDImage.ape
  Extracted successfully
  Conclusion: this track is CDDA with probability 100%
  Tempfile successfully deleted.
Finished at: среда, 05. 11. 2008. - 0:25.43 (operation time: 0:01.36)
Правила, инструкции, FAQ!!!
Торрент  Добавлен [26 июн 2020, 19:48] Скачать торрент Магнет ссылка
Скачать торрент
[ Размер 14.29 КБ / Просмотров 11 ]

Статус
Проверен 
 
Размер  173.12 МБ
Приватный: Нет (DHT включён)
.torrent скачан  0
 


     Отправить личное сообщение
   
Страница 1 из 1
Показать сообщения за:  Поле сортировки  
Начать новую тему Ответить на тему


Сейчас этот форум просматривают: нет зарегистрированных пользователей и гости: 0


Вы не можете начинать темы
Вы не можете отвечать на сообщения
Вы не можете редактировать свои сообщения
Вы не можете удалять свои сообщения
Вы не можете добавлять вложения

Перейти:  
cron