Начать новую тему Ответить на тему
Статистика раздачи
Размер: 160.32 МБ | Добавлен: 26 июн 2020, 18:59 | Скачали: 0
Сидеров: 0  [0 байт/сек]    Личеров: 0  [0 байт/сек]
Пред. тема | След. тема 

Автор
Сообщение

СообщениеДобавлено: 26 июн 2020, 18:59 

Ответить с цитатой 

VNV Nation - Standing [Single]
Жанр: future pop
Год выпуска диска: 2000
Производитель диска: (Mindbase, Germany)
Аудио кодек: FLAC
Тип рипа: image+.cue
Битрейт аудио: lossless
Продолжительность: 22:40.06
Трэклист:
1. Standing (Still) [4:11]
2. Standing (Motion) [8:09]
3. Radius² [4:40]
4. Standing (Original) [5:40]
Код:
Exact Audio Copy V0.99 prebeta 4 from 23. January 2008
Отчёт EAC об извлечении, выполненном 8. августа 2009, 18:23
VNV Nation / Standing [Single]
Дисковод: Optiarc DVD RW AD-7173A   Adapter: 0  ID: 0
Режим чтения                 : Достоверность
Использование точного потока : Да
Отключение кэша аудио        : Да
Использование указателей C2  : Нет
Коррекция смещения при чтении                     : 48
Способность читать области Lead-in и Lead-out     : Нет
Заполнение пропущенных сэмплов тишиной            : Да
Удаление блоков с тишиной в начале и конце        : Нет
При вычислениях CRC использовались нулевые сэмплы : Да
Интерфейс                                         : Встроенный Win32-интерфейс для Win NT/2000
Выходной формат          : Пользовательский кодировщик
Выбранный битрейт        : 1024 kBit/s
Качество                 : Высокий
Добавление ID3-тэга      : Нет
Утилита сжатия           : C:\Program Files\Exact Audio Copy\Flac\flac.exe
Дополнительные параметры : -V -6 -T "artist=%a" -T "title=%t" -T "album=%g" -T "date=%y" -T "tracknumber=%n" -T "genre=%m" %s
TOC извлечённого CD
     Трек |   Старт  | Длительность | Начальный сектор | Конечный сектор
    ---------------------------------------------------------------------
       1  |  0:00.00 |    4:10.53   |           0      |      18802
       2  |  4:10.53 |    8:09.27   |       18803      |      55504
       3  | 12:20.05 |    4:39.52   |       55505      |      76481
       4  | 16:59.57 |    5:40.24   |       76482      |     102005
Характеристики диапазона извлечения и сообщения об ошибках
Выбранный диапазон
     Имя файла E:\torrent2\VNV Nation 2000-Standing [Single] (future pop) [flac] 224006 (Mindbase, Germany)\VNV Nation - Standing.wav
     Пиковый уровень 99.9 %
     Качество диапазона 100.0 %
     CRC теста 969507AA
     CRC копии 969507AA
     Копирование... OK
Ошибок не произошло
AccurateRip: сводка
Трек  1  точное извлечение (доверие 4)  [A61346B1]
Трек  2  точное извлечение (доверие 4)  [E58C34F1]
Трек  3  точное извлечение (доверие 4)  [A4BC1DF5]
Трек  4  точное извлечение (доверие 4)  [2B0596D1]
 
Правила, инструкции, FAQ!!!
Торрент  Добавлен [26 июн 2020, 18:59] Скачать торрент Магнет ссылка
Скачать торрент
[ Размер 13.34 КБ / Просмотров 15 ]

Статус
Проверен 
 
Размер  160.32 МБ
Приватный: Нет (DHT включён)
.torrent скачан  0
 


     Отправить личное сообщение
   
Страница 1 из 1
Показать сообщения за:  Поле сортировки  
Начать новую тему Ответить на тему


Сейчас этот форум просматривают: нет зарегистрированных пользователей и гости: 0


Вы не можете начинать темы
Вы не можете отвечать на сообщения
Вы не можете редактировать свои сообщения
Вы не можете удалять свои сообщения
Вы не можете добавлять вложения

Перейти:  
cron