Начать новую тему Ответить на тему
Статистика раздачи
Размер: 1.53 ГБ | Добавлен: 26 июн 2020, 20:39 | Скачали: 5
Сидеров: 20  [0 байт/сек]    Личеров: 4  [0 байт/сек]
Пред. тема | След. тема 

Автор
Сообщение

СообщениеДобавлено: 26 июн 2020, 20:39 

Ответить с цитатой 

(Future Pop) VNV Nation -1999-2007(5 CD)
Жанр: Future pop
Годы выпуска дисков: 1999-2007
Производители дисков: UK, Germany, USA, Sweden
Аудио кодек: FLAC
Тип рипа: tracks+.cue
Битрейт аудио: lossless
О группе:
VNV Nation - одна из первых групп, давших старт новому направлению электронной музыки - Future Pop.
Один из наиболее часто задаваемых вопросов – «что означает аббревиатура VNV?». "Victory not Vengeance". "Победа, не мщение". Смыл этого лозунга в том, что следует стремиться к достижению своей цели и не тратить время на отчаяние и злобу по отношению к другим за то, что они способны на что-то, чего еще не сумел осуществить ты.
VNV Nation - Это Ронан Харрис (электроника, тексты и вокал) и Марк Джексон (перкуссии)
Vnv изначально черпали вдохновение из столкновения современной и классической европейской культуры, где мифология и технология сосуществуют в сложном взаимодействии и формируют новое представление о мире вокруг. Их музыка охватывает широкий спектр стилей - от электронных танцевальных ритмов до баллад и классических мелодий.
На их музыку влияет как современный андеграунд и индастриал, так и классическая музыка. Тексты обращены к философии, литературе, искусству, политике и к разным формам символизма. VNV не пропагандирует никакой идеологии. VNV Nation - это метафора экспрессии, творческого самовыражения.
"Transform yourselves from the dead stones to the living, philosophical stones" (с) Ronan Harris
#777
Лейбл: Dependent Records
продолжительность: 19:12
Трэклист:
1 Darkangel (Gabriel) (4:59)
2 Darkangel (Azrael) (8:00)
3 Tempest (6:11)
EAC extraction logfile from 26. October 2006, 6:04 for CD
VNV Nation / Darkangel
Used drive : SONY DVD-ROM DDU1611 Adapter: 1 ID: 1
Read mode : Secure with NO C2, accurate stream, disable cache
Read offset correction : 594
Overread into Lead-In and Lead-Out : No
Used output format : C:\Program Files\FLAC\flac.exe (User Defined Encoder)
320 kBit/s
Additional command line options : -V -8 -T "artist=%a" -T "title=%t" -T "album=%g" -T "date=%y" -T "tracknumber=%n" -T "genre=%m" %s
Other options :
Fill up missing offset samples with silence : Yes
Delete leading and trailing silent blocks : No
Installed external ASPI interface
Track 1
Filename F:\Torrent Files\VNV Nation - Dark Angel\01 - VNV Nation - Darkangel (Gabriel).wav
Pre-gap length 0:00:02.00
Peak level 99.2 %
Track quality 99.9 %
Test CRC B20323B2
Copy CRC B20323B2
Copy OK
Track 2
Filename F:\Torrent Files\VNV Nation - Dark Angel\02 - VNV Nation - Darkangel (Azrael).wav
Pre-gap length 0:00:00.37
Peak level 99.2 %
Track quality 100.0 %
Test CRC 9C38E43E
Copy CRC 9C38E43E
Copy OK
Track 3
Filename F:\Torrent Files\VNV Nation - Dark Angel\03 - VNV Nation - Tempest.wav
Pre-gap length 0:00:01.65
Peak level 99.9 %
Track quality 100.0 %
Test CRC A5D58564
Copy CRC A5D58564
Copy OK
No errors occured
End of status report
AUDIOCHECKER v2.0 beta (build 457) - by Dester - opdester@freemail.hu
~~~~~~~~~~~~~~~~~~~~~~~~~~~~~~~~~~
-=== НЕ РЕДАКТИРУЙТЕ ЭТОТ ФАЙЛ! ===-
Путь: ...\VNV_Nation_-_DarkAngel-1999-FLACl
01 -=- 01 - VNV Nation - Darkangel (Gabriel).flac -=- CDDA (100%)
02 -=- 02 - VNV Nation - Darkangel (Azrael).flac -=- CDDA (100%)
03 -=- 03 - VNV Nation - Tempest.flac -=- CDDA (100%)
Сводка 100,00% CDDA
242354036
#777
Лейбл: Wax Trax! Records
продолжительность: 1:00:59
Тип рипа: img+.cue
Трэклист:
1 Chosen (4:21)
2 Joy (5:52)
3 Procession (5:23)
4 Voice (6:12)
5 Forsaken (4:49)
6 Ascension (8:15)
7 Honour (6:41)
8 Burnout (3:32)
9 Solitary (7:29)
10 PTF2012 (3:06)
11 Schweigeminute (1:00)
12 Untitled (4:12)
Exact Audio Copy V0.99 prebeta 4 from 23. January 2008
Отчёт EAC об извлечении, выполненном 24. июля 2008, 19:35
VNV Nation / Praise the fallen
Дисковод: Optiarc DVD RW AD-7203S Adapter: 5 ID: 0
Режим чтения : Достоверность
Использование точного потока : Да
Отключение кэша аудио : Да
Использование указателей C2 : Нет
Коррекция смещения при чтении : 48
Способность читать области Lead-in и Lead-out : Нет
Заполнение пропущенных сэмплов тишиной : Да
Удаление блоков с тишиной в начале и конце : Нет
При вычислениях CRC использовались нулевые сэмплы : Да
Интерфейс : Установленный внешний ASPI-интерфейс
Выходной формат : Внутренние WAV-операции
Формат сэмплов : 44.100 Гц; 16 бит; стерео
TOC извлечённого CD
Трек | Старт | Длительность | Начальный сектор | Конечный сектор
---------------------------------------------------------------------
1 | 0:00.00 | 4:21.35 | 0 | 19609
2 | 4:21.35 | 5:52.65 | 19610 | 46074
3 | 10:14.25 | 5:23.50 | 46075 | 70349
4 | 15:38.00 | 6:12.22 | 70350 | 98271
5 | 21:50.22 | 4:49.40 | 98272 | 119986
6 | 26:39.62 | 8:15.48 | 119987 | 157159
7 | 34:55.35 | 6:41.15 | 157160 | 187249
8 | 41:36.50 | 3:32.60 | 187250 | 203209
9 | 45:09.35 | 7:29.47 | 203210 | 236931
10 | 52:39.07 | 3:06.53 | 236932 | 250934
11 | 55:45.60 | 1:00.25 | 250935 | 255459
12 | 56:46.10 | 4:12.65 | 255460 | 274424
Характеристики диапазона извлечения и сообщения об ошибках
Выбранный диапазон
Имя файла E:\music\VNV nation\VNV Nation - Praise the fallen.wav
Пиковый уровень 98.4 %
Качество диапазона 99.9 %
CRC копии 24181F97
Копирование... OK
Ошибок не произошло
AccurateRip: сводка
Трек 1 точное извлечение (доверие 12) [6AAC35B6]
Трек 2 точное извлечение (доверие 12) [4C4ECB3E]
Трек 3 точное извлечение (доверие 12) [F883C3B1]
Трек 4 точное извлечение (доверие 12) [ABF77F96]
Трек 5 точное извлечение (доверие 12) [AA58A149]
Трек 6 точное извлечение (доверие 11) [243B5E19]
Трек 7 точное извлечение (доверие 11) [FD270340]
Трек 8 точное извлечение (доверие 12) [A9A14B01]
Трек 9 точное извлечение (доверие 12) [8398FB95]
Трек 10 точное извлечение (доверие 12) [A411D06B]
Трек 11 нет в базе данных
Трек 12 точное извлечение (доверие 12) [87B7BDB9]
11 трек(и) скопированы точно
1 трек(и) не содержатся в базе AccurateRip
Некоторые треки не прошли проверку на точность
Конец отчёта
AUDIOCHECKER v2.0 beta (build 457) - by Dester - opdester@freemail.hu
~~~~~~~~~~~~~~~~~~~~~~~~~~~~~~~~~~
-=== DO NOT EDIT THIS FILE! ===-
Path: ...\Praise the fallen
1 -=- VNV Nation - Praise the fallen.flac -=- CDDA (100%)
238122676
#777
Лейбл: Metropolis
продолжительность: 51:01
Тип рипа: img+.cue
Трэклист:
1 Firstlight (2:10)
2 Kingdom (5:51)
3 Rubicon (6:20)
4 Saviour (6:59)
5 Fragments (5:02)
6 Distant (Rubicon II) (3:15)
7 Standing (5:40)
8 Legion (5:11)
9 Darkangel (5:28)
10 Arclight (5:00)
Exact Audio Copy V0.99 prebeta 4 from 23. January 2008
Отчёт EAC об извлечении, выполненном 24. июля 2008, 21:45
VNV Nation / Empires
Дисковод: Optiarc DVD RW AD-7203S Adapter: 5 ID: 0
Режим чтения : Достоверность
Использование точного потока : Да
Отключение кэша аудио : Да
Использование указателей C2 : Нет
Коррекция смещения при чтении : 48
Способность читать области Lead-in и Lead-out : Нет
Заполнение пропущенных сэмплов тишиной : Да
Удаление блоков с тишиной в начале и конце : Нет
При вычислениях CRC использовались нулевые сэмплы : Да
Интерфейс : Установленный внешний ASPI-интерфейс
Выходной формат : Пользовательский кодировщик
Выбранный битрейт : 128 kBit/s
Качество : Высокий
Добавление ID3-тэга : Нет
Утилита сжатия : C:\Program Files\FLAC\flac.exe
Дополнительные параметры : -8 -V -T "ARTIST=%a" -T "TITLE=%t" -T "ALBUM=%g" -T "DATE=%y" -T "TRACKNUMBER=%n" -T "GENRE=%m" -T "COMMENT=EAC FLAC -8" %s
TOC извлечённого CD
Трек | Старт | Длительность | Начальный сектор | Конечный сектор
---------------------------------------------------------------------
1 | 0:00.00 | 2:10.04 | 0 | 9753
2 | 2:10.04 | 5:51.59 | 9754 | 36137
3 | 8:01.63 | 6:20.56 | 36138 | 64693
4 | 14:22.44 | 6:59.34 | 64694 | 96152
5 | 21:22.03 | 5:02.40 | 96153 | 118842
6 | 26:24.43 | 3:15.47 | 118843 | 133514
7 | 29:40.15 | 5:40.25 | 133515 | 159039
8 | 35:20.40 | 5:11.10 | 159040 | 182374
9 | 40:31.50 | 5:28.39 | 182375 | 207013
10 | 46:00.14 | 5:00.56 | 207014 | 229569
Характеристики диапазона извлечения и сообщения об ошибках
Выбранный диапазон
Имя файла E:\music\VNV nation\Empires\VNV Nation - Empires.wav
Пиковый уровень 100.0 %
Качество диапазона 99.9 %
CRC копии A661F968
Копирование... OK
Ошибок не произошло
AccurateRip: сводка
Трек 1 точное извлечение (доверие 16) [1F4062BF]
Трек 2 точное извлечение (доверие 17) [7E05488E]
Трек 3 точное извлечение (доверие 16) [80EA3EB5]
Трек 4 точное извлечение (доверие 16) [15544C23]
Трек 5 точное извлечение (доверие 16) [A11FFE88]
Трек 6 точное извлечение (доверие 16) [8DE6DB01]
Трек 7 точное извлечение (доверие 16) [9A3ECAAC]
Трек 8 точное извлечение (доверие 16) [DD20D650]
Трек 9 точное извлечение (доверие 16) [93E8645E]
Трек 10 точное извлечение (доверие 17) [6869518C]
Все треки извлечены точно
Конец отчёта
AUDIOCHECKER v2.0 beta (build 457) - by Dester - opdester@freemail.hu
~~~~~~~~~~~~~~~~~~~~~~~~~~~~~~~~~~
-=== DO NOT EDIT THIS FILE! ===-
Path: ...\Empires
1 -=- VNV Nation - Empires.flac -=- CDDA (99%)
82936852
#777
продолжительность: 55:07
Трэклист:
1 Intro (1:27)
2 Chrome (4:40)
3 Arena (5:44)
4 Colours Of Rain (4:06)
5 Strata (4:00)
6 Interceptor (3:25)
7 Entropy (5:17)
8 Endless Skies (5:55)
9 Homeward (5:34)
10 Lightwave (7:00)
11 Perpetual (7:53)
Exact Audio Copy V0.99 prebeta 1 from 25. May 2007
EAC extraction logfile from 25. August 2007, 17:05
VNV Nation / Matter + Form
Used drive : _NEC DVD_RW ND-3520A Adapter: 4 ID: 0
Read mode : Secure
Utilize accurate stream : Yes
Defeat audio cache : No
Make use of C2 pointers : No
Read offset correction : 48
Overread into Lead-In and Lead-Out : No
Fill up missing offset samples with silence : Yes
Delete leading and trailing silent blocks : No
Used interface : Installed external ASPI interface
Gap handling : Appended to previous track
Used output format : User Defined Encoder
Selected bitrate : 1024 kBit/s
Quality : High
Add ID3 tag : No
Command line compressor : D:\Programs\FLAC\flac.exe
Additional command line options : --best -T "TRACKNUMBER=%n"-T "ARTIST=%a"-T "TITLE=%t" %s
Use compression offset : 48
TOC of the extracted CD
Track | Start | Length | Start sector | End sector
---------------------------------------------------------
1 | 0:00.00 | 1:27.06 | 0 | 6530
2 | 1:27.06 | 4:40.58 | 6531 | 27588
3 | 6:07.64 | 5:44.54 | 27589 | 53442
4 | 11:52.43 | 4:06.31 | 53443 | 71923
5 | 15:58.74 | 4:00.08 | 71924 | 89931
6 | 19:59.07 | 3:25.27 | 89932 | 105333
7 | 23:24.34 | 5:17.60 | 105334 | 129168
8 | 28:42.19 | 5:55.05 | 129169 | 155798
9 | 34:37.24 | 5:34.09 | 155799 | 180857
10 | 40:11.33 | 7:00.69 | 180858 | 212426
11 | 47:12.27 | 7:53.53 | 212427 | 247954
Track 1
Filename F:\Grabbed\VNV Nation - [2005] - Matter + Form\01. VNV Nation - Intro.wav
Pre-gap length 0:00:02.00
Peak level 99.9 %
Track quality 100.0 %
Copy CRC C1B40D0D
Copy OK
Track 2
Filename F:\Grabbed\VNV Nation - [2005] - Matter + Form\02. VNV Nation - Chrome.wav
Peak level 99.9 %
Track quality 100.0 %
Copy CRC 9E2571A2
Copy OK
Track 3
Filename F:\Grabbed\VNV Nation - [2005] - Matter + Form\03. VNV Nation - Arena.wav
Peak level 99.9 %
Track quality 100.0 %
Copy CRC 502302DE
Copy OK
Track 4
Filename F:\Grabbed\VNV Nation - [2005] - Matter + Form\04. VNV Nation - Colours of Rain.wav
Peak level 99.9 %
Track quality 100.0 %
Copy CRC 4DCBAEC7
Copy OK
Track 5
Filename F:\Grabbed\VNV Nation - [2005] - Matter + Form\05. VNV Nation - Strata.wav
Peak level 99.9 %
Track quality 100.0 %
Copy CRC 2BBC1927
Copy OK
Track 6
Filename F:\Grabbed\VNV Nation - [2005] - Matter + Form\06. VNV Nation - Interceptor.wav
Peak level 99.9 %
Track quality 100.0 %
Copy CRC 1970B82B
Copy OK
Track 7
Filename F:\Grabbed\VNV Nation - [2005] - Matter + Form\07. VNV Nation - Entropy.wav
Peak level 99.9 %
Track quality 99.9 %
Copy CRC B5AF4270
Copy OK
Track 8
Filename F:\Grabbed\VNV Nation - [2005] - Matter + Form\08. VNV Nation - Endless Skies.wav
Peak level 99.9 %
Track quality 100.0 %
Copy CRC EEF26CA0
Copy OK
Track 9
Filename F:\Grabbed\VNV Nation - [2005] - Matter + Form\09. VNV Nation - Homeward.wav
Peak level 99.9 %
Track quality 100.0 %
Copy CRC BD51E09E
Copy OK
Track 10
Filename F:\Grabbed\VNV Nation - [2005] - Matter + Form\10. VNV Nation - Lightwave.wav
Peak level 99.9 %
Track quality 100.0 %
Copy CRC 96AB3DF3
Copy OK
Track 11
Filename F:\Grabbed\VNV Nation - [2005] - Matter + Form\11. VNV Nation - Perpetual.wav
Peak level 99.9 %
Track quality 100.0 %
Copy CRC 47C699C1
Copy OK
No errors occurred
End of status report
AUDIOCHECKER v2.0 beta (build 457) - by Dester - opdester@freemail.hu
~~~~~~~~~~~~~~~~~~~~~~~~~~~~~~~~~~
-=== НЕ РЕДАКТИРУЙТЕ ЭТОТ ФАЙЛ! ===-
Путь: ...\VNV_Nation_-_Matter+Form-2005-FLAC
01 -=- 01. VNV Nation - Intro.flac -=- CDDA (100%)
02 -=- 02. VNV Nation - Chrome.flac -=- CDDA (100%)
03 -=- 03. VNV Nation - Arena.flac -=- CDDA (100%)
04 -=- 04. VNV Nation - Colours of Rain.flac -=- CDDA (100%)
05 -=- 05. VNV Nation - Strata.flac -=- CDDA (100%)
06 -=- 06. VNV Nation - Interceptor.flac -=- CDDA (100%)
07 -=- 07. VNV Nation - Entropy.flac -=- CDDA (100%)
08 -=- 08. VNV Nation - Endless Skies.flac -=- CDDA (100%)
09 -=- 09. VNV Nation - Homeward.flac -=- CDDA (100%)
10 -=- 10. VNV Nation - Lightwave.flac -=- CDDA (100%)
11 -=- 11. VNV Nation - Perpetual.flac -=- CDDA (100%)
Сводка 100,00% CDDA
27089316
#777
продолжительность: 52:01
Трэклист:
1 Prelude (4:08)
2 The Farthest Star (4:53)
3 Testament (6:14)
4 Descent (4:25)
5 Momentum (6:15)
6 Nemesis (4:30)
7 Secluded Spaces (5:54)
8 Illusion (4:47)
9 Carry You (6:11)
10 As It Fades (4:38)
Exact Audio Copy V0.99 prebeta 3 from 28. July 2007
EAC extraction logfile from 1. July 2008, 0:48
VNV Nation / Judgement
Used drive : TSSTcorpCD/DVDW SH-S182D Adapter: 0 ID: 0
Read mode : Secure
Utilize accurate stream : Yes
Defeat audio cache : Yes
Make use of C2 pointers : No
Read offset correction : 6
Overread into Lead-In and Lead-Out : No
Fill up missing offset samples with silence : Yes
Delete leading and trailing silent blocks : No
Null samples used in CRC calculations : Yes
Used interface : Native Win32 interface for Win NT & 2000
Gap handling : Appended to previous track
Used output format : User Defined Encoder
Selected bitrate : 320 kBit/s
Quality : High
Add ID3 tag : No
Command line compressor : H:\Program Files\FLAC\flac.exe
Additional command line options : -V -8 -T "artist=%a" -T "title=%t" -T "album=%g" -T "date=%y" -T "tracknumber=%n" -T "genre=%m" %s
TOC of the extracted CD
Track | Start | Length | Start sector | End sector
---------------------------------------------------------
1 | 0:00.00 | 4:08.68 | 0 | 18667
2 | 4:08.68 | 4:52.73 | 18668 | 40640
3 | 9:01.66 | 6:14.55 | 40641 | 68745
4 | 15:16.46 | 4:25.68 | 68746 | 88688
5 | 19:42.39 | 6:15.57 | 88689 | 116870
6 | 25:58.21 | 4:30.35 | 116871 | 137155
7 | 30:28.56 | 5:54.68 | 137156 | 163773
8 | 36:23.49 | 4:46.72 | 163774 | 185295
9 | 41:10.46 | 6:11.55 | 185296 | 213175
10 | 47:22.26 | 4:38.67 | 213176 | 234092
Track 1
Filename H:\Documents and Settings\User\Desktop\VNV Nation - Judgement\01 - Prelude .wav
Pre-gap length 0:00:02.00
Peak level 99.9 %
Track quality 100.0 %
Test CRC 17526361
Copy CRC 17526361
Accurately ripped (confidence 16) [7DC6CA89]
Copy OK
Track 2
Filename H:\Documents and Settings\User\Desktop\VNV Nation - Judgement\02 - The Farthest Star .wav
Peak level 99.9 %
Track quality 100.0 %
Test CRC EB4899A5
Copy CRC EB4899A5
Accurately ripped (confidence 16) [0FCFD5E2]
Copy OK
Track 3
Filename H:\Documents and Settings\User\Desktop\VNV Nation - Judgement\03 - Testament .wav
Peak level 99.9 %
Track quality 100.0 %
Test CRC 48072247
Copy CRC 48072247
Accurately ripped (confidence 15) [4633E9FB]
Copy OK
Track 4
Filename H:\Documents and Settings\User\Desktop\VNV Nation - Judgement\04 - Descent .wav
Pre-gap length 0:00:01.21
Peak level 99.9 %
Track quality 100.0 %
Test CRC BE2936E9
Copy CRC BE2936E9
Accurately ripped (confidence 16) [42D1FA31]
Copy OK
Track 5
Filename H:\Documents and Settings\User\Desktop\VNV Nation - Judgement\05 - Momentum .wav
Peak level 99.9 %
Track quality 100.0 %
Test CRC CE1EAA62
Copy CRC CE1EAA62
Accurately ripped (confidence 15) [1EE465F7]
Copy OK
Track 6
Filename H:\Documents and Settings\User\Desktop\VNV Nation - Judgement\06 - Nemesis .wav
Pre-gap length 0:00:01.02
Peak level 99.9 %
Track quality 100.0 %
Test CRC 4A2D9044
Copy CRC 4A2D9044
Accurately ripped (confidence 15) [57E54067]
Copy OK
Track 7
Filename H:\Documents and Settings\User\Desktop\VNV Nation - Judgement\07 - Secluded Spaces .wav
Pre-gap length 0:00:01.34
Peak level 99.9 %
Track quality 100.0 %
Test CRC A2C4FF0A
Copy CRC A2C4FF0A
Accurately ripped (confidence 16) [35CEEC24]
Copy OK
Track 8
Filename H:\Documents and Settings\User\Desktop\VNV Nation - Judgement\08 - Illusion .wav
Peak level 99.9 %
Track quality 100.0 %
Test CRC 060ED94D
Copy CRC 060ED94D
Accurately ripped (confidence 15) [F7413DF4]
Copy OK
Track 9
Filename H:\Documents and Settings\User\Desktop\VNV Nation - Judgement\09 - Carry You .wav
Pre-gap length 0:00:01.14
Peak level 99.9 %
Track quality 100.0 %
Test CRC 9C9D3495
Copy CRC 9C9D3495
Accurately ripped (confidence 16) [12EAEE86]
Copy OK
Track 10
Filename H:\Documents and Settings\User\Desktop\VNV Nation - Judgement\10 - As It Fades .wav
Peak level 99.9 %
Track quality 100.0 %
Test CRC C5716DE3
Copy CRC C5716DE3
Accurately ripped (confidence 16) [B090392C]
Copy OK
All tracks accurately ripped
No errors occurred
End of status report
AUDIOCHECKER v2.0 beta (build 457) - by Dester - opdester@freemail.hu
~~~~~~~~~~~~~~~~~~~~~~~~~~~~~~~~~~
-=== НЕ РЕДАКТИРУЙТЕ ЭТОТ ФАЙЛ! ===-
Путь: ...\VNV_Nation_-_Judgement-2007-FLAC
01 -=- 01 - Prelude .flac -=- MPEG (95%)
02 -=- 02 - The Farthest Star .flac -=- CDDA (99%)
03 -=- 03 - Testament .flac -=- CDDA (100%)
04 -=- 04 - Descent .flac -=- CDDA (100%)
05 -=- 05 - Momentum .flac -=- CDDA (99%)
06 -=- 06 - Nemesis .flac -=- CDDA (100%)
07 -=- 07 - Secluded Spaces .flac -=- CDDA (100%)
08 -=- 08 - Illusion .flac -=- CDDA (100%)
09 -=- 09 - Carry You .flac -=- CDDA (100%)
10 -=- 10 - As It Fades .flac -=- CDDA (86%)
Сводка 88,90% CDDA
68310868
Доп. информация:
VNV Nation Official Homepage
информация о релизах группы
!!ТОРРЕНТ БЫЛ ПЕРЕЗАЛИТ!!
Правила, инструкции, FAQ!!!
Торрент  Добавлен [26 июн 2020, 20:39] Скачать торрент Магнет ссылка
Скачать торрент
[ Размер 20.83 КБ / Просмотров 34 ]

Статус
Проверен 
 
Размер  1.53 ГБ
Приватный: Нет (DHT включён)
.torrent скачан  5
 


     Отправить личное сообщение
   
Страница 1 из 1
Показать сообщения за:  Поле сортировки  
Начать новую тему Ответить на тему


Сейчас этот форум просматривают: нет зарегистрированных пользователей и гости: 0


Вы не можете начинать темы
Вы не можете отвечать на сообщения
Вы не можете редактировать свои сообщения
Вы не можете удалять свои сообщения
Вы не можете добавлять вложения

Перейти:  
cron