Начать новую тему Ответить на тему
Статистика раздачи
Размер: 527.58 МБ | Добавлен: 26 июн 2020, 17:37 | Скачали: 0
Сидеров: 0  [0 байт/сек]    Личеров: 0  [0 байт/сек]
Пред. тема | След. тема 

Автор
Сообщение

СообщениеДобавлено: 26 июн 2020, 17:37 

Ответить с цитатой 

The Parallel Project - Fusion
Жанр: future pop
Год выпуска диска: 2004
Производитель диска: (Out Of Line, Germany)
Аудио кодек: FLAC
Тип рипа: image+.cue
Битрейт аудио: lossless
Продолжительность: 79:51.43
Трэклист:
01. Space And Fiction (feat. Darrin Huss) [6:00]
02. Failure (feat. Sandrine Gouriou) [4:58]
03. Deleted Scenes (feat. Mark Jackson) [7:06]
04. Motive (feat. Rashree Devi Matson) [5:24]
05. Explicit (feat. Tom Shear) [6:32]
06. Recognition (feat. Daniel Myer) [6:57]
07. Dissolve (feat. Jennifer Parkin) [6:03]
08. Drowning (feat. Clint Carney) [4:24]
09. Alchemy (feat. Salva Maine) [5:42]
10. Memory (feat. Courtney Bangert) [5:41]
11. Trigger (feat. Victoria Lloyd) [5:16]
12. Contrast (feat. Ned Kirby) [4:16]
13. Consequence (feat. Kristy Venrick) [5:32]
14. Glimpse (feat. G. Wygonik) [6:03]
Источник: Физический носитель
Код:
Exact Audio Copy V0.99 prebeta 4 from 23. January 2008
Отчёт EAC об извлечении, выполненном 3. декабря 2008, 23:51
The Parallel Project / Fusion
Дисковод: Optiarc DVD RW AD-7173A   Adapter: 0  ID: 0
Режим чтения                 : Достоверность
Использование точного потока : Да
Отключение кэша аудио        : Да
Использование указателей C2  : Нет
Коррекция смещения при чтении                     : 48
Способность читать области Lead-in и Lead-out     : Нет
Заполнение пропущенных сэмплов тишиной            : Да
Удаление блоков с тишиной в начале и конце        : Нет
При вычислениях CRC использовались нулевые сэмплы : Да
Интерфейс                                         : Встроенный Win32-интерфейс для Win NT/2000
Выходной формат          : Пользовательский кодировщик
Выбранный битрейт        : 1024 kBit/s
Качество                 : Высокий
Добавление ID3-тэга      : Нет
Утилита сжатия           : C:\Program Files\Exact Audio Copy\Flac\flac.exe
Дополнительные параметры : -6 -V -T "ARTIST=%a" -T "TITLE=%t" -T "ALBUM=%g" -T "DATE=%y" -T "TRACKNUMBER=%n" -T "GENRE=%m" -T "COMMENT=%e" %s -o %d
TOC извлечённого CD
     Трек |   Старт  | Длительность | Начальный сектор | Конечный сектор
    ---------------------------------------------------------------------
       1  |  0:00.00 |    5:59.44   |           0      |      26968
       2  |  5:59.44 |    4:58.18   |       26969      |      49336
       3  | 10:57.62 |    7:05.70   |       49337      |      81281
       4  | 18:03.57 |    5:23.39   |       81282      |     105545
       5  | 23:27.21 |    6:31.74   |      105546      |     134944
       6  | 29:59.20 |    6:56.64   |      134945      |     166208
       7  | 36:56.09 |    6:02.66   |      166209      |     193424
       8  | 42:59.00 |    4:23.45   |      193425      |     213194
       9  | 47:22.45 |    5:41.61   |      213195      |     238830
      10  | 53:04.31 |    5:41.28   |      238831      |     264433
      11  | 58:45.59 |    5:15.63   |      264434      |     288121
      12  | 64:01.47 |    4:15.47   |      288122      |     307293
      13  | 68:17.19 |    5:31.43   |      307294      |     332161
      14  | 73:48.62 |    6:02.56   |      332162      |     359367
Характеристики диапазона извлечения и сообщения об ошибках
Выбранный диапазон
     Имя файла G:\СКАЧКА\FLAC\The Parallel Project - Fusion.wav
     Пиковый уровень 100.0 %
     Качество диапазона 99.9 %
     CRC теста 58A40BC9
     CRC копии 58A40BC9
     Копирование... OK
Ошибок не произошло
Конец отчёта
Правила, инструкции, FAQ!!!
Торрент  Добавлен [26 июн 2020, 17:37] Скачать торрент Магнет ссылка
Скачать торрент
[ Размер 11.22 КБ / Просмотров 11 ]

Статус
Проверен 
 
Размер  527.58 МБ
Приватный: Нет (DHT включён)
.torrent скачан  0
 


     Отправить личное сообщение
   
Страница 1 из 1
Показать сообщения за:  Поле сортировки  
Начать новую тему Ответить на тему


Сейчас этот форум просматривают: нет зарегистрированных пользователей и гости: 0


Вы не можете начинать темы
Вы не можете отвечать на сообщения
Вы не можете редактировать свои сообщения
Вы не можете удалять свои сообщения
Вы не можете добавлять вложения

Перейти:  
cron