Начать новую тему Ответить на тему
Статистика раздачи
Размер: 426.4 МБ | Добавлен: 26 июн 2020, 17:03 | Скачали: 0
Сидеров: 0  [0 байт/сек]    Личеров: 0  [0 байт/сек]
Пред. тема | След. тема 

Автор
Сообщение

СообщениеДобавлено: 26 июн 2020, 17:03 

Ответить с цитатой 

Nekrodamus - A Brave Dawn
Жанр: future pop / synth gothic
Год выпуска диска: 2006
Производитель диска: (Twilight Records, Argentina)
Аудио кодек: FLAC
Тип рипа: image+.cue
Битрейт аудио: lossless
Продолжительность: 59:21.56
Трэклист:
01. Flames On My Window [5:24]
02. Deadline [5:56]
03. Burning Wild (feat. Froxeanne) [5:14]
04. Reason To Die [5:31]
05. The Edge Of Silence [5:00]
06. And Night Falls (feat. Billy SMK) [5:31]
07. High [4:36]
08. Beyond The Starlights (feat. Froxeanne) [3:48]
09. The World [5:36]
10. Son Of Disaster [6:34]
11. Deadline (Umilenie remix) [6:12]
Источник: Физический носитель
Код:
Exact Audio Copy V0.99 prebeta 5 from 4. May 2009
Отчёт EAC об извлечении, выполненном 18. марта 2010, 8:45
Nekrodamus / A Brave Dawn
Дисковод: Optiarc DVD RW AD-7173A   Adapter: 0  ID: 0
Режим чтения                 : Достоверность
Использование точного потока : Да
Отключение кэша аудио        : Да
Использование указателей C2  : Нет
Коррекция смещения при чтении                     : 48
Способность читать области Lead-in и Lead-out     : Нет
Заполнение пропущенных сэмплов тишиной            : Да
Удаление блоков с тишиной в начале и конце        : Нет
При вычислениях CRC использовались нулевые сэмплы : Да
Интерфейс                                         : Установленный внешний ASPI-интерфейс
Выходной формат          : Пользовательский кодировщик
Выбранный битрейт        : 1024 kBit/s
Качество                 : Высокий
Добавление ID3-тэга      : Нет
Утилита сжатия           : C:\Program Files\Exact Audio Copy\Flac\flac.exe
Дополнительные параметры : -6 -V -T "ARTIST=%a" -T "TITLE=%t" -T "ALBUM=%g" -T "DATE=%y" -T "TRACKNUMBER=%n" -T "GENRE=%m" -T "COMMENT=%e" %s -o %d
TOC извлечённого CD
     Трек |   Старт  | Длительность | Начальный сектор | Конечный сектор
    ---------------------------------------------------------------------
       1  |  0:00.00 |    5:24.32   |           0      |      24331
       2  |  5:24.32 |    5:55.51   |       24332      |      51007
       3  | 11:20.08 |    5:14.37   |       51008      |      74594
       4  | 16:34.45 |    5:30.52   |       74595      |      99396
       5  | 22:05.22 |    5:00.03   |       99397      |     121899
       6  | 27:05.25 |    5:30.73   |      121900      |     146722
       7  | 32:36.23 |    4:35.74   |      146723      |     167421
       8  | 37:12.22 |    3:47.69   |      167422      |     184515
       9  | 41:00.16 |    5:35.43   |      184516      |     209683
      10  | 46:35.59 |    6:33.47   |      209684      |     239205
      11  | 53:09.31 |    6:12.25   |      239206      |     267130
Характеристики диапазона извлечения и сообщения об ошибках
Выбранный диапазон
     Имя файла H:\СКАЧКА\FLAC\1 TORRENT\Nekrodamus - A Brave Dawn.wav
     Пиковый уровень 98.0 %
     Качество диапазона 99.9 %
     CRC теста B682A0A2
     CRC копии B682A0A2
     Копирование... OK
Ошибок не произошло
AccurateRip: сводка
Трек  1  нет в базе данных
Трек  2  нет в базе данных
Трек  3  нет в базе данных
Трек  4  нет в базе данных
Трек  5  нет в базе данных
Трек  6  нет в базе данных
Трек  7  нет в базе данных
Трек  8  нет в базе данных
Трек  9  нет в базе данных
Трек 10  нет в базе данных
Трек 11  нет в базе данных
Ни одного трека нет в базе AccurateRip
Конец отчёта
Хочешь скачать, но не можешь из-за отсутствия сидов - пиши в личку!
Правила, инструкции, FAQ!!!
Торрент  Добавлен [26 июн 2020, 17:03] Скачать торрент Магнет ссылка
Скачать торрент
[ Размер 17.44 КБ / Просмотров 4 ]

Статус
Проверен 
 
Размер  426.4 МБ
Приватный: Нет (DHT включён)
.torrent скачан  0
 


     Отправить личное сообщение
   
Страница 1 из 1
Показать сообщения за:  Поле сортировки  
Начать новую тему Ответить на тему


Сейчас этот форум просматривают: нет зарегистрированных пользователей и гости: 0


Вы не можете начинать темы
Вы не можете отвечать на сообщения
Вы не можете редактировать свои сообщения
Вы не можете удалять свои сообщения
Вы не можете добавлять вложения

Перейти:  
cron