Начать новую тему Ответить на тему
Статистика раздачи
Размер: 257.76 МБ | Добавлен: 26 июн 2020, 19:53 | Скачали: 0
Сидеров: 0  [0 байт/сек]    Личеров: 0  [0 байт/сек]
Пред. тема | След. тема 

Автор
Сообщение

СообщениеДобавлено: 26 июн 2020, 19:53 

Ответить с цитатой 

State Of The Union - Timerunner [Single]
Жанр: future pop
Год выпуска диска: 2004
Производитель диска: (Infacted Recordings, Germany)
Аудио кодек: FLAC
Тип рипа: image+.cue
Битрейт аудио: lossless
Продолжительность: 37:20.00
Треклист:
1. Al Principio [3:57]
2. Timerunner (Orginal Version) [7:23]
3. Experiment I [3:35]
4. Experiment II [3:57]
5. Children Of The Night (Resident Evil mix) [5:16]
6. Experiment III [4:20]
7. Timerunner (Radio Edit) [4:44]
8. Timerunner (Quantum State remix by Koito) [4:08]
Источник: Физический носитель
Код:
Exact Audio Copy V0.99 prebeta 4 from 23. January 2008
Отчёт EAC об извлечении, выполненном 23. октября 2009, 9:03
State Of The Union / Timerunner [Single]
Дисковод: Optiarc DVD RW AD-7173A   Adapter: 0  ID: 0
Режим чтения                 : Достоверность
Использование точного потока : Да
Отключение кэша аудио        : Да
Использование указателей C2  : Нет
Коррекция смещения при чтении                     : 48
Способность читать области Lead-in и Lead-out     : Нет
Заполнение пропущенных сэмплов тишиной            : Да
Удаление блоков с тишиной в начале и конце        : Нет
При вычислениях CRC использовались нулевые сэмплы : Да
Интерфейс                                         : Установленный внешний ASPI-интерфейс
Выходной формат          : Пользовательский кодировщик
Выбранный битрейт        : 1024 kBit/s
Качество                 : Высокий
Добавление ID3-тэга      : Нет
Утилита сжатия           : C:\Program Files\Exact Audio Copy\Flac\flac.exe
Дополнительные параметры : -6 -V -T "ARTIST=%a" -T "TITLE=%t" -T "ALBUM=%g" -T "DATE=%y" -T "TRACKNUMBER=%n" -T "GENRE=%m" -T "COMMENT=%e" %s -o %d
TOC извлечённого CD
     Трек |   Старт  | Длительность | Начальный сектор | Конечный сектор
    ---------------------------------------------------------------------
       1  |  0:00.00 |    3:57.24   |           0      |      17798
       2  |  3:57.24 |    7:22.51   |       17799      |      50999
       3  | 11:20.00 |    3:35.03   |       51000      |      67127
       4  | 14:55.03 |    3:56.58   |       67128      |      84885
       5  | 18:51.61 |    5:16.31   |       84886      |     108616
       6  | 24:08.17 |    4:19.41   |      108617      |     128082
       7  | 28:27.58 |    4:44.32   |      128083      |     149414
       8  | 33:12.15 |    4:07.60   |      149415      |     167999
Характеристики диапазона извлечения и сообщения об ошибках
Выбранный диапазон
     Имя файла E:\torrent2\State Of The Union - Timerunner [Single].wav
     Пиковый уровень 100.0 %
     Качество диапазона 100.0 %
     CRC теста 293C3AAB
     CRC копии 293C3AAB
     Копирование... OK
Ошибок не произошло
AccurateRip: сводка
Трек  1  точное извлечение (доверие 1)  [CB102002]
Трек  2  точное извлечение (доверие 1)  [E6AF9E0E]
Трек  3  точное извлечение (доверие 1)  [0F394F07]
Трек  4  точное извлечение (доверие 1)  [EAC392C4]
Трек  5  точное извлечение (доверие 1)  [AF41158D]
Трек  6  точное извлечение (доверие 1)  [7610D3E4]
Трек  7  точное извлечение (доверие 1)  [A9D5BE9B]
Трек  8  точность не определена (достоверность 1)  [DC82D8B0], AccurateRip вернул [9E6B45A6]
 7 трек(и) скопированы точно
 1 трек(и) не удалось проверить на точность
Некоторые треки не прошли проверку на точность
Конец отчёта
Хочешь скачать, но не можешь из-за отсутствия сидов - пиши в личку!
Правила, инструкции, FAQ!!!
Торрент  Добавлен [26 июн 2020, 19:53] Скачать торрент Магнет ссылка
Скачать торрент
[ Размер 10.87 КБ / Просмотров 8 ]

Статус
Проверен 
 
Размер  257.76 МБ
Приватный: Нет (DHT включён)
.torrent скачан  0
 


     Отправить личное сообщение
   
Страница 1 из 1
Показать сообщения за:  Поле сортировки  
Начать новую тему Ответить на тему


Сейчас этот форум просматривают: нет зарегистрированных пользователей и гости: 0


Вы не можете начинать темы
Вы не можете отвечать на сообщения
Вы не можете редактировать свои сообщения
Вы не можете удалять свои сообщения
Вы не можете добавлять вложения

Перейти:  
cron